<?xml version="1.0" standalone="no"?>
<!DOCTYPE svg PUBLIC "-//W3C//DTD SVG 1.1//EN" "http://www.w3.org/Graphics/SVG/1.1/DTD/svg11.dtd" >
<svg xmlns="http://www.w3.org/2000/svg">
  <metadata>Created by iconfont</metadata>
  <defs>
  <font id="iconfont" horiz-adv-x="1024">
    <font-face
      font-family="iconfont"
      font-weight="400"
      font-stretch="normal"
      units-per-em="1024"
      ascent="896"
      descent="-128"
    />
      <missing-glyph />
      
      <glyph glyph-name="dingshi" unicode="&#59116;" d="M511.68 841.6A457.28 457.28 0 1 0 54.4 384.32a30.72 30.72 0 0 0 61.44 0 395.776 395.776 0 1 1 395.84 395.776c-41.344 0-81.088-6.272-118.464-17.92a30.72 30.72 0 0 0-18.432 58.56A457.152 457.152 0 0 0 511.744 841.6zM480 606.72a30.72 30.72 0 0 0 30.72-30.72v-193.28H704a30.72 30.72 0 0 0 0-61.44H480a30.72 30.72 0 0 0-30.72 30.72V576a30.72 30.72 0 0 0 30.72 30.72zM189.248 762.112a11.2 11.2 0 0 0 21.184 0l25.536-75.776a11.2 11.2 0 0 1 6.4-6.784l71.68-29.184a11.2 11.2 0 0 0 0-20.736l-71.68-29.184a11.2 11.2 0 0 1-6.4-6.784l-25.536-75.776a11.2 11.2 0 0 0-21.184 0l-25.472 75.776a11.2 11.2 0 0 1-6.4 6.784l-71.744 29.184a11.2 11.2 0 0 0 0 20.736l71.744 29.184a11.2 11.2 0 0 1 6.4 6.784l25.472 75.776z"  horiz-adv-x="1024" />
      
      <glyph glyph-name="shujiyingyin" unicode="&#59114;" d="M691.2 825.6c74.24 0 134.336-60.16 134.4-134.4v-44.8h96a32 32 0 0 0 25.024-52.032L860.224 486.4l86.4-108.032a32.064 32.064 0 0 0-24.96-51.968h-96.128v-249.6a134.4 134.4 0 0 0-134.4-134.4H204.8a134.4 134.4 0 0 0-134.4 134.4V691.2c0.064 74.24 60.224 134.4 134.4 134.4h486.4z m-19.2-499.2v-121.6a83.2 83.2 0 0 0-83.2-83.2H179.2c-24.704 0-44.8-20.096-44.8-44.8a70.4 70.4 0 0 1 70.4-70.4h486.4a70.4 70.4 0 0 1 70.4 70.4V326.4h-89.6zM204.8 761.6a70.4 70.4 0 0 1-70.4-70.4v-515.328c13.632 6.208 28.8 9.728 44.8 9.728h409.6a19.2 19.2 0 0 1 19.2 19.2V761.6H204.8z m467.2-371.2h183.04l-60.8 75.968a32 32 0 0 0 0 40l60.8 76.032H672v-192z m0 256h89.6v44.8a70.4 70.4 0 0 1-70.4 70.4h-19.2v-115.2z"  horiz-adv-x="1024" />
      
      <glyph glyph-name="shiwu" unicode="&#59113;" d="M869.44 134.4c18.176 0 32.96-14.848 33.024-33.024 0-73.6-59.776-133.376-133.376-133.376H254.976A133.376 133.376 0 0 0 121.6 101.376c0 18.24 14.784 33.024 33.024 33.024h714.816z m-676.48-64c11.456-22.72 34.88-38.4 62.08-38.4h514.048c27.136 0 50.56 15.616 61.952 38.4h-638.08z m664.576 320a96 96 0 0 0 0-192H166.4a96 96 0 0 0 0 192h691.2z m-691.2-64a32 32 0 0 1 0-64h691.2a32 32 0 0 1 0 64H166.4z m465.28 447.616a285.504 285.504 0 0 0 270.848-285.056c0-19.072-15.552-34.56-34.56-34.56H156.16a34.56 34.56 0 0 0-34.56 34.56A285.44 285.44 0 0 0 407.04 774.4H616.96l14.72-0.384z m-235.904-64A221.44 221.44 0 0 1 187.648 518.4h648.768a221.44 221.44 0 0 1-208 191.68l-11.52 0.32H407.04l-11.328-0.32zM384 614.4a25.6 25.6 0 1 0 0-51.2 25.6 25.6 0 0 0 0 51.2z m307.2 0a25.6 25.6 0 1 0 0-51.2 25.6 25.6 0 0 0 0 51.2z m-153.6 51.2a25.6 25.6 0 1 0-0.064-51.2 25.6 25.6 0 0 0 0.064 51.2z"  horiz-adv-x="1024" />
      
      <glyph glyph-name="yunjisuan" unicode="&#59102;" d="M443.52 832c101.248 0 188.608-56.064 229.44-137.152a227.2 227.2 0 0 0 52.096 6.08c120.704 0 218.56-94.208 218.56-210.368 0-112.64-92.032-204.608-207.616-210.048l-2.56-0.064a230.528 230.528 0 0 0-16.832 0h-40.704v-172.288h42.368a96 96 0 1 0-3.52-38.4h-58.112a19.2 19.2 0 0 0-19.2 19.2V280.512h-59.968v-262.528a19.2 19.2 0 0 0-19.2-19.2h-47.68a95.936 95.936 0 1 0-1.28 38.464h29.824v243.2H421.76v-131.328a19.2 19.2 0 0 0-19.2-19.2h-83.2a96 96 0 1 0-3.52 38.4H383.36V280.448h-106.88a214.656 214.656 0 0 0-10.432-0.256C154.496 280.192 64 367.04 64 474.112c0 84.48 56.384 156.224 135.04 182.848C229.12 757.952 327.04 832 443.52 832zM416 72.448a57.6 57.6 0 1 1 0-115.264 57.6 57.6 0 0 1 0 115.2z m394.112 65.536a57.6 57.6 0 1 1 0-115.264 57.6 57.6 0 0 1 0 115.264zM224 198.08a57.6 57.6 0 1 1 0-115.328 57.6 57.6 0 0 1 0 115.328zM443.52 768c-89.344 0-161.536-56.64-183.232-129.28l-9.408-31.808-31.36-10.624C164.608 577.728 128 528.896 128 474.112c0-69.248 59.328-129.92 138.112-129.92 2.56 0 4.928 0.064 7.296 0.192h445.504a164.032 164.032 0 0 1 12.288 0H732.928c78.592 3.84 138.752 62.08 145.92 132.032l0.768 14.144c0 78.528-66.88 146.368-154.56 146.368a163.2 163.2 0 0 1-37.44-4.352l-49.088-11.52-22.784 44.992C585.984 725.12 521.024 768 443.52 768z"  horiz-adv-x="1024" />
      
      <glyph glyph-name="qiye" unicode="&#59107;" d="M401.984 256a32 32 0 1 0 0-64h-128a32 32 0 0 0 0 64h128zM401.984 448a32 32 0 0 0 0-64h-128a32 32 0 1 0 0 64h128zM775.104 256a32 32 0 1 0 0-64h-128a32 32 0 0 0 0 64h128zM513.92 827.648a32 32 0 0 0 48.064-27.648v-174.336l337.216-214.656A32 32 0 0 0 913.92 384v-384H960a32 32 0 1 0 0-64H64a32 32 0 0 0 0 64h49.984V576a32 32 0 0 0 15.872 27.648l384 224zM177.92 557.696V0h320V744.32l-320-186.624z m384-557.696h288V366.464l-288 183.296V0z"  horiz-adv-x="1024" />
      
      <glyph glyph-name="yuhua" unicode="&#59100;" d="M565.504-22.144l4.16-31.744a445.056 445.056 0 0 0-115.328 0l4.16 31.744 4.16 31.744a381.696 381.696 0 0 1 98.688 0l4.16-31.744zM282.112 84.48c25.984-20.032 54.656-36.736 85.312-49.408l-24.448-59.136a441.28 441.28 0 0 0-99.84 57.728l39.04 50.752zM780.8 33.664c-30.336-23.296-63.872-42.88-99.84-57.728l-24.448 59.136c30.72 12.672 59.328 29.44 85.312 49.344l39.04-50.752zM163.008 239.488c12.736-30.72 29.44-59.328 49.344-85.312l-50.688-39.04a441.408 441.408 0 0 0-57.792 99.84l59.136 24.512zM920.064 215.04a441.28 441.28 0 0 0-57.728-99.84l-50.752 39.04c19.968 25.92 36.672 54.592 49.344 85.248l59.136-24.512zM512 620.8a236.8 236.8 0 1 0 0-473.6 236.8 236.8 0 0 0 0 473.6z m0-64a172.8 172.8 0 1 1 0-345.6 172.8 172.8 0 0 1 0 345.6zM105.792 437.504l31.808-4.16a382.016 382.016 0 0 1 0-98.688l-31.808-4.16-31.68-4.16a445.824 445.824 0 0 0 0 115.328l31.68-4.16zM949.888 441.664a446.016 446.016 0 0 0 0-115.328l-31.744 4.16-31.744 4.16a380.736 380.736 0 0 1 0 98.688l31.744 4.16 31.744 4.16zM212.352 613.888a377.216 377.216 0 0 1-49.344-85.312l-59.136 24.448a441.344 441.344 0 0 0 57.792 99.84l50.688-39.04zM862.336 652.864c23.296-30.4 42.88-63.872 57.728-99.84l-59.136-24.448a377.408 377.408 0 0 1-49.344 85.312l50.752 39.04zM367.424 732.992c-30.656-12.736-59.328-29.44-85.312-49.344l-39.04 50.688c30.464 23.36 64 42.88 99.84 57.792l24.512-59.136zM680.96 792.128a441.408 441.408 0 0 0 99.84-57.792l-39.04-50.688a377.216 377.216 0 0 1-85.248 49.344l24.512 59.136zM512 825.6c19.52 0 38.784-1.28 57.6-3.712l-4.096-31.68-4.16-31.808a381.632 381.632 0 0 1-98.688 0l-4.16 31.808-4.16 31.68C473.216 824.32 492.48 825.6 512 825.6z"  horiz-adv-x="1024" />
      
      <glyph glyph-name="renminbi-shoufei" unicode="&#59101;" d="M333.824 583.68a32 32 0 0 0 39.68 7.68l5.376-3.584L511.936 476.8l133.12 110.976a32.064 32.064 0 0 0 40.96-49.152L569.6 441.536h96l6.464-0.64a32 32 0 0 0 0-62.656l-6.4-0.64H544v-89.6h121.6a32 32 0 0 0 0-64H544V128a32 32 0 0 0-64 0v96H358.4a32 32 0 0 0 0 64h121.6V377.6H358.4a32 32 0 0 0 0 64h96L337.92 538.56l-4.544 4.608a32 32 0 0 0 0.448 40.448zM512 825.6a441.6 441.6 0 1 0-0.128-883.2A441.6 441.6 0 0 0 512 825.6z m0-64a377.6 377.6 0 1 1 0-755.136 377.6 377.6 0 0 1 0 755.2z"  horiz-adv-x="1024" />
      
      <glyph glyph-name="tianjiaorshanchu-mian1" unicode="&#59099;" d="M512 896a512 512 0 1 0 0-1024A512 512 0 0 0 512 896zM296.192 419.2a32 32 0 0 1 0-64h425.152a32 32 0 0 1 0 64H296.192z"  horiz-adv-x="1024" />
      
      <glyph glyph-name="lizhi" unicode="&#59098;" d="M822.144 238.272a30.848 30.848 0 0 0 42.624-42.624l-3.968-4.8-82.752-82.752 82.752-82.752 3.968-4.864a30.72 30.72 0 0 0-42.624-42.56l-4.8 3.968-82.816 82.752-80.64-80.64a30.784 30.784 0 0 0-43.456 43.456l80.64 80.64-80.64 80.64a30.72 30.72 0 0 0 43.52 43.52l80.64-80.64 82.752 82.688 4.8 3.968zM503.424 792.32A228.352 228.352 0 0 0 630.4 374.272c29.056-11.136 56.448-25.92 81.6-43.776a30.72 30.72 0 0 0-35.648-50.048 299.648 299.648 0 0 1-163.2 55.552c-3.2-0.128-6.4-0.32-9.6-0.32-4.48 0-8.832 0.192-13.184 0.448-165.888-6.528-300.8-150.272-300.8-329.728a30.848 30.848 0 0 0-61.504 0c0 168.768 102.528 314.048 247.424 368.576a228.352 228.352 0 0 0 128 417.344z m0-61.44a166.656 166.656 0 1 1-10.24-333.12l8.96 0.128c3.968 0 7.936-0.064 11.84-0.192a166.72 166.72 0 0 1-10.56 333.12z"  horiz-adv-x="1024" />
      
      <glyph glyph-name="tianjiadaoqiyetuku" unicode="&#59097;" d="M791.36 281.6c14.848 0 27.264-10.56 30.08-24.576l0.64-6.208v-123.84h115.584l6.208-0.64a30.784 30.784 0 0 0 0-60.224l-6.208-0.64h-115.52v-107.2a30.784 30.784 0 0 0-61.504 0v107.2H645.12a30.784 30.784 0 0 0 0 61.44h115.52V250.88l0.64 6.208a30.848 30.848 0 0 0 30.08 24.64zM853.312 594.752A83.2 83.2 0 0 0 928 512v-153.6a32 32 0 0 0-64 0V512a19.2 19.2 0 0 1-15.36 18.816L844.8 531.2H179.2a19.2 19.2 0 0 1-19.2-19.2v-418.752l121.92 156.8 4.48 4.736a32.064 32.064 0 0 0 41.792-0.256l88.576-76.992L561.152 425.6a32.128 32.128 0 0 0 50.304 6.528l102.4-102.4a32 32 0 0 0-45.312-45.184L595.52 357.632l-142.912-245.76-0.256-0.32-63.04-105.152H512l6.4-0.64a32 32 0 0 0 0-62.72l-6.4-0.64H179.2c-24.512 0-46.4 10.624-61.632 27.456a31.744 31.744 0 0 0-20.032 39.808A83.84 83.84 0 0 0 96 25.6V512a83.2 83.2 0 0 0 83.2 83.2h665.6l8.512-0.448zM174.08 7.232a18.88 18.88 0 0 1 5.12-0.832h135.488l68.992 115.072-72 62.656-137.6-176.896zM320 492.8a96 96 0 1 0 0-192 96 96 0 0 0 0 192z m0-64a32 32 0 1 1 0-64 32 32 0 0 1 0 64zM851.2 709.76a32.064 32.064 0 0 0 0-62.72l-6.4-0.64H179.2a32 32 0 0 0 0 64h665.6l6.4-0.64zM793.6 825.6a32 32 0 1 0 0-64H230.4a32 32 0 0 0 0 64h563.2z"  horiz-adv-x="1024" />
      
      <glyph glyph-name="dakaiyingyong" unicode="&#59096;" d="M864 768c8.192 0 15.552-3.2 21.248-8.256 0.448-0.384 1.024-0.64 1.408-1.088l1.92-2.368A32 32 0 0 0 896 736v-407.552a32 32 0 0 0-64 0V658.752L182.592 9.408a32 32 0 1 0-45.248 45.248L786.752 704H456.32a32 32 0 0 0 0 64H864z"  horiz-adv-x="1024" />
      
      <glyph glyph-name="shujuji-tupianji" unicode="&#59095;" d="M320 492.8a96 96 0 1 0 0-192 96 96 0 0 0 0 192z m0-64a32 32 0 1 1 0-64 32 32 0 0 1 0 64zM853.312 594.752A83.2 83.2 0 0 0 928 512v-486.4a83.2 83.2 0 0 0-83.2-83.2H179.2a83.2 83.2 0 0 0-83.2 83.2V512a83.2 83.2 0 0 0 83.2 83.2h665.6l8.512-0.448zM432 6.4h412.8a19.2 19.2 0 0 1 19.2 19.2v116.032l-148.032 169.088L432 6.4z m-252.352 0h164.864l92.928 99.712L358.4 185.152 179.648 6.4zM179.2 531.2a19.2 19.2 0 0 1-19.2-19.2v-434.752l175.744 175.808 5.12 4.096a32 32 0 0 0 40.128-4.096l100.16-100.16 212.224 227.328a32.128 32.128 0 0 0 47.488-0.768l123.136-140.672v273.28a19.2 19.2 0 0 1-15.36 18.752L844.8 531.2H179.2zM851.2 709.76a32.064 32.064 0 0 0 0-62.72l-6.4-0.64H179.2a32 32 0 0 0 0 64h665.6l6.4-0.64zM793.6 825.6a32 32 0 1 0 0-64H230.4a32 32 0 0 0 0 64h563.2z"  horiz-adv-x="1024" />
      
      <glyph glyph-name="biaojiyichang-1" unicode="&#59093;" d="M512-74.624a32 32 0 0 1 0 64 394.688 394.688 0 1 0 394.624 394.688 32 32 0 0 1 64 0A458.688 458.688 0 1 1 512-74.624zM512 316.608c16.96 0 30.72 13.824 30.72 30.72v256a30.72 30.72 0 0 1-61.44 0v-256c0-16.896 13.76-30.72 30.72-30.72zM863.36-26.496c27.648-21.184 66.24 5.76 55.936 39.04l-27.584 89.28 72.512 55.36a35.84 35.84 0 0 1-21.76 64.32h-87.68l-26.944 87.168-2.368 5.952a35.968 35.968 0 0 1-63.808 0l-2.368-5.952-26.88-87.168h-87.808a35.84 35.84 0 0 1-21.76-64.32l72.512-55.296-27.52-89.344c-10.304-33.28 28.224-60.16 56-39.04l69.76 53.376 69.76-53.376z m-48 101.12a35.84 35.84 0 0 1-43.52 0l-40.96-31.168 16.64 53.504a35.84 35.84 0 0 1-12.544 39.04l-44.928 34.304h53.632a35.84 35.84 0 0 1 34.24 25.28l15.616 50.56 15.68-50.56a35.84 35.84 0 0 1 34.24-25.28h53.696l-44.992-34.304a35.904 35.904 0 0 1-12.48-39.04l16.512-53.568-40.896 31.232zM512.128 146.24a51.2 51.2 0 1 1 0 102.4 51.2 51.2 0 0 1 0-102.4z"  horiz-adv-x="1024" />
      
      <glyph glyph-name="biaojiyichang" unicode="&#59094;" d="M512-74.624a32 32 0 0 1 0 64 394.688 394.688 0 1 0 394.624 394.688 32 32 0 0 1 64 0A458.688 458.688 0 1 1 512-74.624zM512 316.608c16.96 0 30.72 13.824 30.72 30.72v256a30.72 30.72 0 0 1-61.44 0v-256c0-16.896 13.76-30.72 30.72-30.72zM512.128 146.24a51.2 51.2 0 1 1 0 102.4 51.2 51.2 0 0 1 0-102.4zM955.84-41.472a32 32 0 0 1 45.248 45.312l-92.16 92.16 79.744 79.744a32 32 0 0 1-45.248 45.248l-79.808-79.744-79.744 79.744a32 32 0 1 1-45.248-45.248l79.744-79.744-92.16-92.16a32 32 0 0 1 45.248-45.312l92.16 92.224 92.16-92.16z"  horiz-adv-x="1024" />
      
      <glyph glyph-name="chenggongorshibai-mian" unicode="&#59091;" d="M512 896a512 512 0 1 0 0-1024A512 512 0 0 0 512 896z m224.32-380.16a32 32 0 0 1-40.128 4.992l-5.12-4.032-246.144-234.88-111.936 106.88-5.12 4.032a32 32 0 0 1-43.328-45.44l4.224-4.8 134.08-128 4.992-3.904a32 32 0 0 1 39.232 3.84l268.16 256a32 32 0 0 1 1.088 45.312z"  horiz-adv-x="1024" />
      
      <glyph glyph-name="tianjiaorshanchu-mian" unicode="&#59092;" d="M512 896a512 512 0 1 0 0-1024A512 512 0 0 0 512 896z m-3.2-264.128a32 32 0 0 1-31.36-25.6l-0.64-6.4v-180.608H296.192l-6.528-0.64a32 32 0 0 1 0-62.72l6.528-0.64H476.8v-180.608a32 32 0 0 1 64 0V355.2h180.608l6.464 0.64a32 32 0 0 1 0 62.72l-6.464 0.64H540.8V599.872l-0.64 6.4a32.064 32.064 0 0 1-31.36 25.6z"  horiz-adv-x="1024" />
      
      <glyph glyph-name="zhixian" unicode="&#59090;" d="M852.8 769.152a32 32 0 0 0 44.288-44.352l-4.032-5.056-716.8-716.8a32 32 0 0 0-45.248 45.248l716.8 716.8 4.992 4.16z"  horiz-adv-x="1024" />
      
      <glyph glyph-name="huabi-qianbi" unicode="&#59088;" d="M638.208 760.32c32 32 83.84 32 115.84 0l108.608-108.672c32-32 32-83.904 0-115.904l-470.592-470.656a30.848 30.848 0 0 0-10.752-6.912l-4.096-1.28-235.328-54.272a30.784 30.784 0 0 0-36.864 36.864l54.272 235.328 1.28 4.096a30.976 30.976 0 0 0 7.04 10.752L638.144 760.32zM176 73.6l133.312 30.72-102.592 102.656-30.72-133.44z m56.768 194.24l137.472-137.536 336.768 336.768-137.6 137.472-336.64-336.64zM710.592 716.8a20.544 20.544 0 0 1-28.992 0L612.864 648l137.6-137.536L819.2 579.264a20.48 20.48 0 0 1 0 28.928L710.656 716.8z"  horiz-adv-x="1024" />
      
      <glyph glyph-name="dingweicitu" unicode="&#59089;" d="M512 460.8a76.8 76.8 0 1 0 0-153.6 76.8 76.8 0 0 0 0 153.6zM512 825.6a32 32 0 0 0 32-32v-71.872a339.2 339.2 0 0 0 305.6-305.472h72.32a32 32 0 0 0 0-64h-72.32A339.2 339.2 0 0 0 544 46.4V-25.6a32.064 32.064 0 0 0-64 0v72.064a339.2 339.2 0 0 0-305.728 305.856h-71.68a32 32 0 0 0 0 64h71.744A339.264 339.264 0 0 0 480 721.728V793.6a32 32 0 0 0 32 32zM544 640a32 32 0 0 0-64 0V657.28a275.264 275.264 0 0 1-241.28-241.088h17.536a32 32 0 0 0 0-64H238.72A275.2 275.2 0 0 1 480 110.72V128a32 32 0 1 0 64 0v-17.28a275.2 275.2 0 0 1 241.28 241.536h-17.024a32 32 0 0 0 0 64h17.024A275.264 275.264 0 0 1 544 657.28V640z"  horiz-adv-x="1024" />
      
      <glyph glyph-name="changjing-zu" unicode="&#59087;" d="M756.992 337.92c14.784 0 27.264-10.496 30.08-24.512l0.64-6.208v-276.672l110.784 106.752 4.928 3.84a30.72 30.72 0 0 0 41.792-43.328l-4.096-4.736-162.944-157.184a30.784 30.784 0 0 0-42.624 0l-162.944 157.184-4.096 4.736a30.784 30.784 0 0 0 41.856 43.328l4.864-3.84 110.976-106.88V307.2c0 16.96 13.824 30.72 30.72 30.72zM910.464 798.464a30.72 30.72 0 0 0 24.512-30.08v-320.128a30.72 30.72 0 0 0-61.44 0v289.28H166.848v-706.624h289.28l6.208-0.64a30.72 30.72 0 0 0 0-60.16l-6.208-0.64h-320a30.784 30.784 0 0 0-30.784 30.72V768.32l0.64 6.208a30.784 30.784 0 0 0 30.08 24.576h768.128l6.272-0.64zM756.672 659.2a30.72 30.72 0 0 0 42.56-42.624l-3.968-4.8-507.136-507.136a30.72 30.72 0 0 0-43.392 43.456l507.072 507.136 4.864 3.904zM503.04 665.024a30.72 30.72 0 0 0 42.496-42.56l-3.84-4.8L282.24 358.272a30.848 30.848 0 0 0-43.52 0 30.848 30.848 0 0 0 0 43.52L498.24 661.12l4.864 3.904zM254.272 675.904a30.72 30.72 0 0 0 42.56-42.56l-3.904-4.8-21.44-21.44a30.72 30.72 0 0 0-43.456 43.456l21.44 21.44 4.8 3.904z"  horiz-adv-x="1024" />
      
      <glyph glyph-name="yidong" unicode="&#59086;" d="M512 213.312a32 32 0 0 0 32-32v-125.44l54.656 43.776 2.688 1.92a32 32 0 0 0 39.808-49.728l-2.496-2.176-106.688-85.312-1.28-0.896a32.768 32.768 0 0 0-11.328-5.12l-1.28-0.384-1.664-0.256a31.36 31.36 0 0 0-10.304 0.256l-1.6 0.384a31.872 31.872 0 0 0-11.328 5.184l-1.216 0.832-106.624 85.312a32 32 0 0 0 40 49.984l54.656-43.712v125.44a32 32 0 0 0 32 32zM179.84 513.152a32 32 0 0 0 49.728-39.808l-1.92-2.688-43.712-54.656h125.44a32 32 0 0 0 0-64h-125.44l43.712-54.656a32 32 0 0 0-49.984-40L92.352 363.968l-0.832 1.28a31.808 31.808 0 0 0-5.184 11.264l-0.384 1.6a32.448 32.448 0 0 0-0.256 10.304l0.256 1.6 0.32 1.28a31.744 31.744 0 0 0 5.184 11.392l0.896 1.28L177.664 510.72l2.176 2.496zM801.28 515.648a32.064 32.064 0 0 0 42.88-2.56l2.176-2.432 85.312-106.688 0.896-1.28a32.768 32.768 0 0 0 5.12-11.328l0.384-1.28 0.256-1.664a32.384 32.384 0 0 0 0-8.896 37.76 37.76 0 0 0-0.256-1.408l-0.384-1.6a31.872 31.872 0 0 0-5.184-11.328l-0.832-1.216-85.312-106.624a32 32 0 0 0-49.984 40l43.712 54.656h-125.44a32 32 0 0 0 0 64h125.44l-43.712 54.656-1.92 2.688a32 32 0 0 0 6.912 42.304zM512 448a64 64 0 1 0 0-128 64 64 0 0 0 0 128zM516.416 810.24l1.6-0.192 1.28-0.32a31.744 31.744 0 0 0 11.392-5.184l1.28-0.896L638.72 718.336l2.496-2.176a32.064 32.064 0 0 0-39.808-49.728l-2.688 1.92-54.656 43.712v-125.44a32 32 0 0 0-64 0v125.44l-54.656-43.712a32 32 0 0 0-40 49.92l106.624 85.376 1.28 0.832a31.808 31.808 0 0 0 11.264 5.184l1.6 0.384a32.256 32.256 0 0 0 10.304 0.256z"  horiz-adv-x="1024" />
      
      <glyph glyph-name="tukutianjiatuku-zu" unicode="&#59085;" d="M551.36 771.84a36.608 36.608 0 0 0 0-71.68L544 699.52H132.48v-458.24l126.336 303.104 2.24 4.544a36.608 36.608 0 0 0 62.784 0.192l80-133.312 41.152 61.632 5.184 6.272a36.672 36.672 0 0 0 51.072-0.64l73.088-73.152 4.736-5.76a36.544 36.544 0 0 0-50.624-50.624l-5.76 4.672-41.6 41.6-48.384-72.576a36.672 36.672 0 0 0-61.824 1.408L298.496 449.408l-155.008-372.096c-0.704-1.728-1.728-3.328-2.688-4.928h403.2l7.36-0.768a36.672 36.672 0 0 0 0-71.68l-7.36-0.704H131.968A72.576 72.576 0 0 0 59.52 71.68V700.032c0 40.064 32.448 72.512 72.512 72.576H544l7.36-0.768zM921.664 71.68a36.608 36.608 0 0 0 0-71.68l-7.36-0.704h-219.456a36.544 36.544 0 1 0 0 73.088h219.456l7.36-0.768zM921.664 246.656a36.608 36.608 0 0 0 0-71.68l-7.36-0.704h-219.456a36.544 36.544 0 1 0 0 73.152h219.456l7.36-0.768zM921.664 421.632a36.608 36.608 0 0 0 0-71.616l-7.36-0.768h-219.456a36.544 36.544 0 1 0 0 73.152h219.456l7.36-0.768zM921.664 596.672a36.608 36.608 0 0 0 0-71.68l-7.36-0.704h-219.456a36.544 36.544 0 1 0 0 73.088h219.456l7.36-0.704zM921.664 771.648a36.608 36.608 0 0 0 0-71.68l-7.36-0.704h-219.456a36.544 36.544 0 1 0 0 73.152h219.456l7.36-0.768z"  horiz-adv-x="1024" />
      
      <glyph glyph-name="shezhi" unicode="&#59084;" d="M512 544a160 160 0 1 0 0-320 160 160 0 0 0 0 320z m0-64a96 96 0 1 1 0-192.064 96 96 0 0 1 0 192zM740.224 799.744a32 32 0 0 0 23.36-15.616l224-384a32 32 0 0 0 0-32.256l-224-384a32 32 0 0 0-27.584-15.872h-448a32 32 0 0 0-27.648 15.872l-224 384a32 32 0 0 0 0 32.256l224 384 2.368 3.52A32 32 0 0 0 288 800h448l4.224-0.256zM100.992 384l205.376-352h411.2L922.88 384l-205.312 352H306.368L100.928 384z"  horiz-adv-x="1024" />
      
      <glyph glyph-name="jiarumoxingku" unicode="&#59083;" d="M474.368 823.424c28.16 11.264 60.288 9.472 87.168-5.632l308.736-173.696 11.392-7.424c24.96-18.944 40.128-48.64 40.128-80.64V384a29.76 29.76 0 0 0-59.392 0V546.56L543.936 353.152v-344.704l74.752 41.984 5.504 2.496a29.76 29.76 0 0 0 23.552-54.208l-86.208-48.512c-26.88-15.104-58.944-17.024-87.168-5.696l-11.84 5.696-308.736 173.696a100.928 100.928 0 0 0-51.456 87.936V556.096c0 36.48 19.648 70.144 51.456 88l308.736 173.696 11.84 5.632zM161.728 211.84c0-15.04 8.064-28.8 21.12-36.224l297.088-167.04V353.28L161.728 546.368v-334.464z m370.688 554.112a41.6 41.6 0 0 1-35.84 2.304l-4.928-2.304-295.04-165.952L512 408.704l315.392 191.424L532.416 766.08zM804.608 335.36c14.848 0 27.264-10.56 30.08-24.576l0.64-6.208v-123.84h115.52l6.144-0.64a30.784 30.784 0 0 0 0-60.288l-6.144-0.64h-115.52v-107.136a30.784 30.784 0 0 0-61.44 0v107.2h-115.648a30.784 30.784 0 0 0 0 61.44h115.584V304.64l0.64 6.208a30.784 30.784 0 0 0 30.08 24.576z"  horiz-adv-x="1024" />
      
      <glyph glyph-name="LORA" unicode="&#59082;" d="M298.24 539.328a32 32 0 0 1-33.28-54.656L480 353.28V128a32 32 0 0 1 64 0V353.28l215.04 131.456a32 32 0 1 1-33.28 54.656L512 408.704l-213.76 130.56zM474.368 823.616a76.8 76.8 0 0 0 75.264 0l332.8-187.2a76.8 76.8 0 0 0 39.168-66.944v-370.944a76.8 76.8 0 0 0-39.168-66.944l-332.8-187.2a76.8 76.8 0 0 0-75.264 0l-332.8 187.2a76.8 76.8 0 0 0-39.168 66.944V569.472a76.8 76.8 0 0 0 39.168 66.944l332.8 187.2z m43.904-55.808a12.8 12.8 0 0 1-12.544 0l-332.8-187.2a12.8 12.8 0 0 1-6.528-11.136v-370.944a12.8 12.8 0 0 1 6.528-11.2l332.8-187.2a12.8 12.8 0 0 1 12.544 0l332.8 187.2a12.8 12.8 0 0 1 6.528 11.2V569.472a12.8 12.8 0 0 1-6.528 11.136l-332.8 187.2z"  horiz-adv-x="1024" />
      
      <glyph glyph-name="gongzuoliu" unicode="&#59081;" d="M405.568 633.6a128 128 0 1 0 0 64H819.2a108.8 108.8 0 0 0 108.8-108.8v-128a108.8 108.8 0 0 0-108.8-108.8h-50.752l22.208-22.144a32 32 0 0 0-45.248-45.312l-76.8 76.8a32 32 0 0 0 0 45.312l76.8 76.8a32 32 0 1 0 45.248-45.312l-22.208-22.144h50.752a44.8 44.8 0 0 1 44.8 44.8v128a44.8 44.8 0 0 1-44.8 44.8H405.568zM345.6 665.6a64 64 0 1 1-128 0 64 64 0 0 1 128 0zM460.352 70.4l-22.144-22.144a32 32 0 1 1 45.248-45.248l76.8 76.8a32 32 0 0 1 0 45.248l-76.8 76.8a32 32 0 1 1-45.248-45.248l22.144-22.208H204.8a44.8 44.8 0 0 0-44.8 44.8v128a44.8 44.8 0 0 0 44.8 44.8h157.632a128 128 0 1 1 0 64H204.8a108.8 108.8 0 0 1-108.8-108.8v-128a108.8 108.8 0 0 1 108.8-108.8h255.552zM486.4 320a64 64 0 1 0 0 128 64 64 0 0 0 0-128zM870.4 102.4a128 128 0 1 0-256 0 128 128 0 0 0 256 0z m-64 0a64 64 0 1 1-128 0 64 64 0 0 1 128 0z"  horiz-adv-x="1024" />
      
      <glyph glyph-name="gaichicun" unicode="&#59080;" d="M179.2 736a19.2 19.2 0 0 1-19.2-19.2v-403.2h242.56a39.04 39.04 0 0 0 39.04-39.04v-242.56h403.2a19.2 19.2 0 0 1 19.2 19.2V384a32 32 0 0 0 64 0v-332.8a83.2 83.2 0 0 0-83.2-83.2H179.2a83.2 83.2 0 0 0-83.2 83.2V716.8a83.2 83.2 0 0 0 83.2 83.2H512a32 32 0 0 0 0-64H179.2z m-19.2-486.4v-198.4a19.2 19.2 0 0 1 19.2-19.2h198.4v217.6H160zM716.8 736h101.952L518.4 435.648V537.6a32 32 0 1 1-64 0v-172.16c0-21.568 17.472-39.04 39.04-39.04h172.16a32 32 0 0 1 0 64H563.648L864 690.752V588.8a32 32 0 0 1 64 0V760.96a39.04 39.04 0 0 1-39.04 39.04H716.8a32 32 0 0 1 0-64z"  horiz-adv-x="1024" />
      
      <glyph glyph-name="xiufu-banshou" unicode="&#59079;" d="M534.336 741.184A236.416 236.416 0 0 1 467.328 540.16L184.768 301.056a173.312 173.312 0 1 1 244.288-244.288l239.104 282.56a236.736 236.736 0 0 1 262.4 295.68 32 32 0 0 1-53.568 14.4l-73.28-73.216a70.4 70.4 0 1 0-99.52 99.52l73.216 73.28a32 32 0 0 1-14.4 53.504 236.736 236.736 0 0 1-228.672-61.312z m45.248-289.6A172.8 172.8 0 0 0 683.52 745.6l-24.576-24.576a134.4 134.4 0 1 1 190.08-190.08l24.576 24.576a172.8 172.8 0 0 0-294.016-104zM226.112 252.16l261.12 220.992c11.392-24.256 27.072-46.912 47.104-66.88 19.968-20.032 42.624-35.712 66.88-47.04L380.16 98.112a109.312 109.312 0 1 0-154.112 154.112zM237.568 776a9.728 9.728 0 0 0 18.24 0l30.784-83.2a9.728 9.728 0 0 1 5.76-5.76l83.2-30.72a9.728 9.728 0 0 0 0-18.368l-83.2-30.72a9.728 9.728 0 0 1-5.76-5.76l-30.72-83.2a9.728 9.728 0 0 0-18.304 0l-30.784 83.2a9.728 9.728 0 0 1-5.76 5.76l-83.2 30.72a9.728 9.728 0 0 0 0 18.304l83.2 30.784a9.728 9.728 0 0 1 5.76 5.76l30.72 83.2zM770.88 229.248a9.088 9.088 0 0 0 17.024 0l24.64-66.496c0.896-2.496 2.88-4.48 5.376-5.376l66.496-24.576a9.088 9.088 0 0 0 0-17.024l-66.56-24.64a9.088 9.088 0 0 1-5.312-5.376l-24.64-66.496a9.088 9.088 0 0 0-17.024 0l-24.576 66.56a9.088 9.088 0 0 1-5.376 5.312l-66.56 24.64a9.088 9.088 0 0 0 0 17.024l66.56 24.576a9.024 9.024 0 0 1 5.376 5.376l24.576 66.56z"  horiz-adv-x="1024" />
      
      <glyph glyph-name="renxiang" unicode="&#59078;" d="M374.208 352.64c14.08 0 25.6-11.52 25.6-25.6v-48.448a25.6 25.6 0 0 0-51.2 0v48.384c0 14.144 11.52 25.6 25.6 25.6zM672.256 327.04a25.6 25.6 0 0 1-51.2 0v-48.448a25.6 25.6 0 0 1 51.2 0v48.384zM522.048 349.568a25.6 25.6 0 0 0 13.12-33.728l-25.664-58.24 28.928-35.456a25.6 25.6 0 1 0-39.616-32.448l-38.912 47.552a25.6 25.6 0 0 0-3.584 26.56l32 72.64a25.6 25.6 0 0 0 33.728 13.12zM631.232 119.552a25.6 25.6 0 1 1-48.384 16.896c-5.248-15.04-23.168-31.04-71.808-31.04-48.384 0-67.456 18.112-71.68 30.72a25.6 25.6 0 1 1-48.64-16.256c14.592-43.52 62.656-65.664 120.32-65.664 57.344 0 104.192 19.712 120.192 65.344zM448 832a352 352 0 0 1-352-352v-171.328A128 128 0 0 1 192 96h29.952A288 288 0 0 1 480-64h64a288 288 0 0 1 258.048 160H832a128 128 0 0 1 96 212.672V480A352 352 0 0 1 576 832H448z m416-484.032A128.256 128.256 0 0 1 832 352v64a32 32 0 0 1-32 32c-75.584 0-117.312 15.104-143.04 31.168-19.328 12.032-29.76 23.936-41.344 37.056a380.608 380.608 0 0 1-16.96 18.432 32 32 0 0 1-45.312 0c-41.6-41.664-98.56-63.808-159.232-75.2C333.44 448 272.256 448 224 448a32 32 0 0 1-32-32v-64c-11.072 0-21.76-1.408-32-4.032V480A288 288 0 0 0 448 768h128a288 288 0 0 0 288-288v-132.032zM768 384.896V224A224 224 0 0 0 544 0h-64A224 224 0 0 0 256 224V384.128c43.52 0.384 96.512 2.432 149.888 12.416 57.344 10.752 117.44 31.104 167.616 70.528 12.16-13.184 28.608-29.12 49.536-42.24 33.28-20.736 78.464-36.224 144.96-39.936zM832 288a64 64 0 1 0 0-128h-7.104c4.608 20.608 7.104 41.984 7.104 64v64z m-640-64c0-22.016 2.496-43.392 7.168-64H192a64 64 0 1 0 0 128v-64z"  horiz-adv-x="1024" />
      
      <glyph glyph-name="regenerate" unicode="&#59075;" d="M889.6 384a32 32 0 1 1 64 0V742.4a32 32 0 0 1-64 0v-129.28A441.344 441.344 0 0 1 512 825.6c-43.008 0-84.544-6.144-123.904-17.664a32 32 0 1 1 17.92-61.44A377.6 377.6 0 0 0 889.6 384zM427.072 563.2a32 32 0 0 0 28.48-17.472l139.072-272.64a32 32 0 1 0-57.024-29.12L427.072 460.8l-110.528-216.768a32 32 0 1 0-57.024 29.056l139.008 272.704a32 32 0 0 0 28.544 17.472zM679.04 553.28a32 32 0 0 0 32-32v-262.784a32 32 0 1 0-64 0V521.28a32 32 0 0 0 32 32zM102.4 416a32 32 0 0 0 32-32 377.6 377.6 0 0 1 693.76-206.528 32 32 0 0 0 53.568-35.072A441.28 441.28 0 0 0 512-57.6c-160 0-300.16 85.12-377.6 212.48v-129.28a32 32 0 0 0-64 0V384a32 32 0 0 0 32 32zM210.432 762.112a11.2 11.2 0 0 1-21.184 0l-25.472-75.776a11.2 11.2 0 0 0-6.4-6.784l-71.744-29.184a11.2 11.2 0 0 1 0-20.736l71.68-29.184c3.072-1.28 5.376-3.712 6.4-6.784l25.536-75.776a11.2 11.2 0 0 1 21.12 0l25.6 75.776a11.2 11.2 0 0 0 6.336 6.784l71.744 29.184a11.2 11.2 0 0 1 0 20.736l-71.744 29.184a11.2 11.2 0 0 0-6.4 6.784l-25.472 75.776z"  horiz-adv-x="1024" />
      
      <glyph glyph-name="regenerate-center" unicode="&#59076;" d="M455.552 545.728a32 32 0 0 1-56.96 0l-139.072-272.64a32 32 0 1 1 56.96-29.12l110.592 216.768L537.6 243.968a32 32 0 1 1 56.96 29.056L455.616 545.728zM711.04 521.28a32 32 0 0 1-64 0v-262.784a32 32 0 1 1 64 0V521.28z"  horiz-adv-x="1024" />
      
      <glyph glyph-name="regenerate-circle" unicode="&#59077;" d="M921.6 352a32 32 0 0 0-32 32 377.6 377.6 0 0 1-483.584 362.56 32 32 0 0 0-17.92 61.44A441.728 441.728 0 0 0 512 825.6c160 0 300.16-85.12 377.6-212.48V742.4a32 32 0 1 0 64 0V384a32 32 0 0 0-32-32zM102.4 416a32 32 0 0 0 32-32 377.6 377.6 0 0 1 693.76-206.528 32 32 0 0 0 53.568-35.072A441.28 441.28 0 0 0 512-57.6c-160 0-300.16 85.12-377.6 212.48v-129.28a32 32 0 0 0-64 0V384a32 32 0 0 0 32 32zM210.432 762.112a11.2 11.2 0 0 1-21.184 0l-25.472-75.776a11.2 11.2 0 0 0-6.4-6.784l-71.744-29.184a11.2 11.2 0 0 1 0-20.736l71.68-29.184c3.072-1.28 5.376-3.712 6.4-6.784l25.536-75.776a11.2 11.2 0 0 1 21.12 0l25.6 75.776a11.2 11.2 0 0 0 6.336 6.784l71.744 29.184a11.2 11.2 0 0 1 0 20.736l-71.744 29.184a11.2 11.2 0 0 0-6.4 6.784l-25.472 75.776z"  horiz-adv-x="1024" />
      
      <glyph glyph-name="xingaoqing-sd" unicode="&#59072;" d="M862.72 718.912a10.88 10.88 0 0 1 6.144 6.592l24.832 75.2a10.88 10.88 0 0 0 20.672 0l24.832-75.2a10.88 10.88 0 0 1 6.144-6.592l70.4-29.184a10.88 10.88 0 0 0 0-20.096l-70.4-29.184a10.88 10.88 0 0 1-6.144-6.656l-24.832-75.2a10.88 10.88 0 0 0-20.672 0l-24.832 75.2a10.88 10.88 0 0 1-6.208 6.656l-70.4 29.184a10.88 10.88 0 0 0 0 20.096l70.4 29.184zM130.432 702.08a3.968 3.968 0 0 1-4.032-3.968v-628.224c0-2.24 1.792-4.032 4.032-4.032h763.2a4.032 4.032 0 0 1 3.968 4.032V484.48a32 32 0 0 0 64 0v-414.592c0-37.568-30.464-68.032-68.032-68.032H130.496a68.032 68.032 0 0 0-68.032 68.032V698.112c0 37.568 30.464 67.968 68.032 67.968H704a32 32 0 0 0 0-64H130.432zM351.36 544c-23.872 0-55.04-6.464-80.64-21.376-25.984-15.168-52.032-43.52-46.528-85.952 4.48-34.176 26.752-53.504 50.688-63.808 21.376-9.216 47.424-12.8 68.224-15.552l0.896-0.128c23.36-3.2 41.472-5.76 55.232-11.008 12.352-4.736 15.36-9.344 16.64-14.528 2.112-8.384-0.32-17.792-10.368-26.88a71.68 71.68 0 0 0-47.68-16.768c-25.216 0-41.6 3.2-53.44 9.024-11.072 5.504-21.12 14.72-30.912 32.576a32 32 0 1 1-56.128-30.784c14.72-26.816 33.472-46.72 58.752-59.2 24.512-12.032 52.096-15.616 81.728-15.616 34.688 0 67.584 12.288 90.752 33.408 23.552 21.376 38.272 53.696 29.44 89.536-8.064 32.832-32.256 49.92-55.872 59.008-21.056 8.064-46.016 11.456-66.24 14.208l-3.264 0.448c-23.232 3.136-40.32 5.76-52.48 11.008-9.92 4.288-11.776 7.936-12.48 13.312-0.96 7.168 1.6 14.464 15.36 22.4 14.208 8.32 33.92 12.672 48.256 12.672 30.528 0 49.792-6.464 60.032-25.728a32 32 0 0 1 56.448 30.144c-27.904 52.288-80.384 59.52-116.48 59.52zM576 544a32 32 0 0 1-32-32v-256a32 32 0 0 1 32-32h96c28.224 0 64.64 10.24 94.336 35.648 30.912 26.24 52.864 67.328 52.864 124.352 0 57.216-22.464 98.24-53.44 124.416A150.208 150.208 0 0 1 672 544H576z m32-256v192h64c13.632 0 34.944-5.632 52.48-20.48 16.256-13.76 30.72-36.736 30.72-75.52 0-39.04-14.272-61.952-30.336-75.648-17.216-14.656-38.4-20.352-52.864-20.352h-64z"  horiz-adv-x="1024" />
      
      <glyph glyph-name="xingaoqing-2k" unicode="&#59073;" d="M862.72 718.912a10.88 10.88 0 0 1 6.144 6.592l24.832 75.2a10.88 10.88 0 0 0 20.672 0l24.832-75.2a10.88 10.88 0 0 1 6.144-6.592l70.4-29.184a10.88 10.88 0 0 0 0-20.096l-70.4-29.184a10.88 10.88 0 0 1-6.144-6.656l-24.832-75.2a10.88 10.88 0 0 0-20.672 0l-24.832 75.2a10.88 10.88 0 0 1-6.208 6.656l-70.4 29.184a10.88 10.88 0 0 0 0 20.096l70.4 29.184zM130.432 702.08a3.968 3.968 0 0 1-4.032-3.968v-628.224c0-2.24 1.792-4.032 4.032-4.032h763.2a4.032 4.032 0 0 1 3.968 4.032V484.48a32 32 0 0 0 64 0v-414.592c0-37.568-30.464-68.032-68.032-68.032H130.496a68.032 68.032 0 0 0-68.032 68.032V698.112c0 37.568 30.464 67.968 68.032 67.968H704a32 32 0 0 0 0-64H130.432zM576 524.096a32 32 0 1 1-64 0v-280.192a32 32 0 1 1 64 0V333.056l52.864 48.192 100.288-154.752a32 32 0 1 1 53.76 34.816l-106.048 163.584 78.848 71.808a32 32 0 0 1-43.072 47.36L576 419.584V524.096zM287.488 446.592c3.2 17.472 9.28 26.24 15.168 31.104 6.016 4.864 15.808 8.832 32.704 8.832 15.232 0 28.032-4.928 36.672-12.544 8.064-7.232 14.464-18.624 14.464-36.736 0-6.528-3.904-17.088-17.536-32.64-13.12-15.104-31.36-30.4-51.584-46.464l-13.376-10.496c-15.488-12.16-31.616-24.704-44.288-36.416-8.32-7.68-16.64-16.192-23.04-25.344a64.256 64.256 0 0 1-12.672-36.416 32 32 0 0 1 32-32h162.496a32 32 0 1 1 0 64H323.456l18.368 14.464 15.296 12.032c20.352 16.128 42.752 34.624 60.096 54.528 16.832 19.328 33.28 44.8 33.28 74.752 0 35.2-13.312 64.384-35.84 84.48a118.464 118.464 0 0 1-79.296 28.8c-26.752 0-52.48-6.4-73.088-23.232-20.736-16.896-32.512-41.088-37.76-68.992a32 32 0 0 1 62.976-11.712z"  horiz-adv-x="1024" />
      
      <glyph glyph-name="xingaoqing-4k" unicode="&#59074;" d="M862.72 718.912a10.88 10.88 0 0 1 6.144 6.592l24.832 75.2a10.88 10.88 0 0 0 20.672 0l24.832-75.2a10.88 10.88 0 0 1 6.144-6.592l70.4-29.184a10.88 10.88 0 0 0 0-20.096l-70.4-29.184a10.88 10.88 0 0 1-6.144-6.656l-24.832-75.2a10.88 10.88 0 0 0-20.672 0l-24.832 75.2a10.88 10.88 0 0 1-6.208 6.656l-70.4 29.184a10.88 10.88 0 0 0 0 20.096l70.4 29.184zM130.432 702.08a3.968 3.968 0 0 1-4.032-3.968v-628.224c0-2.24 1.792-4.032 4.032-4.032h763.2a4.032 4.032 0 0 1 3.968 4.032V484.48a32 32 0 0 0 64 0v-414.592c0-37.568-30.464-68.032-68.032-68.032H130.496a68.032 68.032 0 0 0-68.032 68.032V698.112c0 37.568 30.464 67.968 68.032 67.968H704a32 32 0 0 0 0-64H130.432zM608 524.096a32 32 0 1 1-64 0v-280.192a32 32 0 1 1 64 0V333.056l52.864 48.192 100.288-154.752a32 32 0 1 1 53.76 34.816l-106.048 163.584 78.848 71.808a32 32 0 0 1-43.072 47.36L608 419.584V524.096zM428.288 520.448a32 32 0 0 1-58.752 17.6L229.248 325.056A32 32 0 0 1 256 275.456h108.288v-35.456a32 32 0 1 1 64 0v35.456h14.72a32 32 0 1 1 0 64h-14.72V520.448z m-64-106.752v-74.24h-48.896l48.896 74.24z"  horiz-adv-x="1024" />
      
      <glyph glyph-name="a-chicun16leixingzhankai" unicode="&#59070;" d="M896 736a32 32 0 0 0 0-64H128a32 32 0 0 0 0 64h768zM512 416a32 32 0 0 0 0-64H128a32 32 0 0 0 0 64h384zM896 96a32 32 0 0 0 0-64H128a32 32 0 0 0 0 64h768zM729.6 508.8a16 16 0 0 1-25.6-12.8v-224a16 16 0 0 1 25.6-12.8l149.312 112a16 16 0 0 1 0 25.6L729.6 508.8z"  horiz-adv-x="1024" />
      
      <glyph glyph-name="a-chicun16leixingshouqi" unicode="&#59071;" d="M128 736a32 32 0 0 1 0-64h768a32 32 0 0 1 0 64H128zM512 416a32 32 0 0 1 0-64h384a32 32 0 0 1 0 64H512zM128 96a32 32 0 0 1 0-64h768a32 32 0 0 1 0 64H128zM320 496v-224a16 16 0 0 0-25.6-12.8L145.088 371.2a16 16 0 0 0 0 25.6L294.4 508.8a16 16 0 0 0 25.6-12.8z"  horiz-adv-x="1024" />
      
      <glyph glyph-name="tianjia-green" unicode="&#59069;" d="M512-128c282.766222 0 512 229.233778 512 512S794.766222 896 512 896 0 666.766222 0 384s229.233778-512 512-512zM540.785778 599.893333a32 32 0 1 1-64 0v-180.622222h-180.622222a32 32 0 0 1 0-64h180.622222v-180.622222a32 32 0 0 1 64 0v180.622222h180.622222a32 32 0 1 1 0 64h-180.622222v180.622222z"  horiz-adv-x="1024" />
      
      <glyph glyph-name="add-flat" unicode="&#59068;" d="M1024 384A512 512 0 1 0 0 384a512 512 0 0 0 1024 0zM508.8 631.872a32 32 0 0 1-32-32v-180.608H296.192a32 32 0 0 1 0-64H476.8v-180.608a32 32 0 1 1 64 0V355.2h180.608a32 32 0 0 1 0 64H540.8V599.872a32 32 0 0 1-32 32z"  horiz-adv-x="1024" />
      
      <glyph glyph-name="zhuye" unicode="&#59067;" d="M525.12 737.408a19.2 19.2 0 0 1-26.24 0L124.288 386.24a32 32 0 0 0-43.776 46.72l374.592 351.168a83.2 83.2 0 0 0 113.792 0l374.592-351.168a32 32 0 0 0-43.776-46.72L525.12 737.408zM204.8 416a32 32 0 0 0 32-32v-358.4a19.2 19.2 0 0 1 19.2-19.2h96v224a83.2 83.2 0 0 0 83.2 83.2h153.6a83.2 83.2 0 0 0 83.2-83.2v-224H768a19.2 19.2 0 0 1 19.2 19.2V384a32 32 0 0 0 64 0v-358.4a83.2 83.2 0 0 0-83.2-83.2H256a83.2 83.2 0 0 0-83.2 83.2V384a32 32 0 0 0 32 32z m403.2-409.6v224a19.2 19.2 0 0 1-19.2 19.2H435.2a19.2 19.2 0 0 1-19.2-19.2v-224h192z"  horiz-adv-x="1024" />
      
      <glyph glyph-name="gongzuotai" unicode="&#59066;" d="M439.872 588.8a32 32 0 0 0 28.48-17.472l139.072-272.64a32 32 0 1 0-57.024-29.12L439.872 486.4 329.344 269.568a32 32 0 0 0-57.024 29.056l139.008 272.704a32 32 0 0 0 28.544 17.472zM691.84 578.88a32 32 0 0 0 32-32v-262.784a32 32 0 0 0-64 0V546.88a32 32 0 0 0 32 32zM153.6 774.4a83.2 83.2 0 0 1-83.2-83.2v-512a83.2 83.2 0 0 1 83.2-83.2h332.8v-64H204.8a32 32 0 0 1 0-64H768a32 32 0 0 1 0 64H550.4v64h320a83.2 83.2 0 0 1 83.2 83.2v512a83.2 83.2 0 0 1-83.2 83.2H153.6z m-19.2-83.2a19.2 19.2 0 0 0 19.2 19.2h716.8a19.2 19.2 0 0 0 19.2-19.2v-512a19.2 19.2 0 0 0-19.2-19.2H153.6a19.2 19.2 0 0 0-19.2 19.2v512z"  horiz-adv-x="1024" />
      
      <glyph glyph-name="moxing-lora" unicode="&#59064;" d="M210.112 560c-62.464 33.28-57.472 124.352 8.256 150.592l262.72 105.088a83.2 83.2 0 0 0 61.824 0l262.72-105.088c65.728-26.24 70.72-117.376 8.32-150.656L551.104 419.84a83.2 83.2 0 0 0-78.336 0L210.112 560z m32 91.2a19.2 19.2 0 0 1-1.92-34.752l262.784-140.16a19.2 19.2 0 0 1 18.048 0l262.784 140.16a19.2 19.2 0 0 1-1.92 34.752L519.04 756.288a19.2 19.2 0 0 1-14.208 0L242.112 651.2zM70.4 429.44a83.2 83.2 0 0 0 120.192 74.56l243.2-120.64c28.288-14.08 46.208-42.88 46.208-74.496v-277.504a83.2 83.2 0 0 0-120.192-74.56l-243.2 120.64a83.2 83.2 0 0 0-46.208 74.496V429.44z m91.712 17.216a19.2 19.2 0 0 1-27.712-17.216v-277.504a19.2 19.2 0 0 1 10.688-17.152l243.2-120.64a19.2 19.2 0 0 1 27.712 17.216V308.864a19.2 19.2 0 0 1-10.688 17.152l-243.2 120.64zM953.6 429.44a83.2 83.2 0 0 1-120.192 74.56l-243.2-120.64A83.2 83.2 0 0 1 544 308.864v-277.504a83.2 83.2 0 0 1 120.192-74.56l243.2 120.64a83.2 83.2 0 0 1 46.208 74.496V429.44z m-91.712 17.216a19.2 19.2 0 0 0 27.712-17.216v-277.504a19.2 19.2 0 0 0-10.688-17.152l-243.2-120.64a19.2 19.2 0 0 0-27.712 17.216V308.864a19.2 19.2 0 0 0 10.688 17.152l243.2 120.64z"  horiz-adv-x="1024" />
      
      <glyph glyph-name="dingzhi" unicode="&#59065;" d="M764.544 792.704a74.688 74.688 0 0 1-105.6 0L513.088 646.848 371.904 789.12a74.688 74.688 0 0 1-105.6 0.384L106.56 630.848a74.688 74.688 0 0 1-0.384-105.6l142.08-143.168-49.792-49.856a32 32 0 0 1-8.128-13.824L104.96 19.712a32 32 0 0 1 39.552-39.552l298.688 85.312a32 32 0 0 1 13.824 8.192l48.896 48.896 141.312-142.336c29.056-29.248 76.352-29.44 105.6-0.384l159.808 158.656c29.248 29.056 29.44 76.288 0.384 105.6l-142.272 143.232 146.752 146.816a74.624 74.624 0 0 1 0 105.6l-152.96 152.96z m-39.04-450.56l142.08-143.168a10.688 10.688 0 0 0 0-15.104l-159.808-158.592a10.688 10.688 0 0 0-15.104 0l-45.824 46.208 66.176 66.176a32 32 0 0 1-45.248 45.248l-65.984-66.048-50.56 50.944 174.272 174.272z m-432 85.184l-39.872 40.192L328.96 542.976a32 32 0 1 1-45.248 45.248L208.512 512.96l-56.96 57.344a10.688 10.688 0 0 0 0.064 15.104l159.808 158.656a10.688 10.688 0 0 0 15.104-0.064L467.84 601.6 293.568 427.328z m410.688 320.128a10.688 10.688 0 0 0 15.104 0l152.96-152.96a10.688 10.688 0 0 0 0-15.104l-47.232-47.232-169.28 166.848 48.448 48.448zM610.56 653.76l169.28-166.848-362.112-362.176-235.328-67.2 67.2 235.328 360.96 360.96z"  horiz-adv-x="1024" />
      
      <glyph glyph-name="a-chicun16" unicode="&#59054;" d="M352 678.912a160 160 0 1 0 320 0 160 160 0 0 0-320 0z m160 96a96 96 0 1 1 0-192 96 96 0 0 1 0 192zM307.2 484.48a134.4 134.4 0 0 1-134.4-134.4V262.4h-7.36c-52.864 0-88.96-53.376-69.376-102.4l68.288-170.688c11.328-28.352 38.784-46.912 69.312-46.912h556.672c30.528 0 57.984 18.56 69.312 46.912l68.224 170.688a74.688 74.688 0 0 1-69.312 102.4H851.2V350.08a134.4 134.4 0 0 1-134.4 134.4H307.2z m480-222.08H236.8V350.08a70.4 70.4 0 0 0 70.4 70.4h189.12L462.08 347.968a13.44 13.44 0 0 1-0.896-8.96c0.768-3.008 2.56-5.76 5.12-7.936l32.768-27.52a20.48 20.48 0 0 1 13.12-4.672 20.544 20.544 0 0 1 13.12 4.48l32.512 27.328a14.976 14.976 0 0 1 4.992 7.936 13.248 13.248 0 0 1-0.96 8.96L526.72 420.48H716.8a70.4 70.4 0 0 0 70.4-70.4V262.4z m-631.68-78.656a10.688 10.688 0 0 0 9.92 14.656h693.12c7.552 0 12.736-7.68 9.92-14.656l-68.288-170.624a10.688 10.688 0 0 0-9.856-6.72H233.6a10.688 10.688 0 0 0-9.856 6.72L155.52 183.68z"  horiz-adv-x="1024" />
      
      <glyph glyph-name="a-chicun16leibieyifu" unicode="&#59055;" d="M327.232 813.76a84.352 84.352 0 0 0 99.84-10.304l85.44-78.784a37.568 37.568 0 0 1 50.368 0l85.056 78.4a84.224 84.224 0 0 0 100.032 10.24l38.912-23.296c36.736-21.952 50.816-67.84 32.256-106.496l-89.408-185.856a118.4 118.4 0 0 1-2.688-97.024l117.12-281.408a92.352 92.352 0 0 0-46.208-118.912 600.704 600.704 0 0 0-260.224-57.984h-0.384a599.04 599.04 0 0 0-260.032 57.984 92.992 92.992 0 0 0-46.208 119.616l116.864 281.088a118.784 118.784 0 0 1-2.56 97.088L255.872 683.904a82.368 82.368 0 0 0 32.256 106.496l39.04 23.36z m32.64-55.04l-38.848-23.232a18.304 18.304 0 0 1-7.424-23.872l89.408-185.792c5.184-10.688 9.216-21.76 12.16-33.152a351.104 351.104 0 0 1 244.8 0c2.944 11.2 6.976 22.144 12.096 32.768l89.408 185.728a18.304 18.304 0 0 1-7.424 23.936l-39.04 23.36s0.064 0 0 0a20.224 20.224 0 0 1-23.68-2.432l-85.12-78.4a101.568 101.568 0 0 0-137.088 0l-85.376 78.72a20.352 20.352 0 0 1-23.808 2.368z m295.488-334.976a415.168 415.168 0 0 0-235.712 0c-2.048-16.064-6.208-32-12.544-47.296L290.176 95.36a28.992 28.992 0 0 1 14.72-37.248 535.04 535.04 0 0 1 232.448-51.776h0.384c82.56 0 160.768 17.472 232.832 51.776h0.128a28.352 28.352 0 0 1 14.336 36.544l-117.056 281.408c-6.4 15.36-10.624 31.424-12.608 47.68z"  horiz-adv-x="1024" />
      
      <glyph glyph-name="a-chicun16leibiegengduo-qita" unicode="&#59056;" d="M117.312 384a394.688 394.688 0 0 0 601.408 336.256 32 32 0 0 1 33.536 54.528 458.688 458.688 0 1 1 163.136-172.352 32 32 0 1 1-56.256-30.528A394.688 394.688 0 1 0 117.312 384zM320 320a53.312 53.312 0 1 1 0 106.688A53.312 53.312 0 0 1 320 320zM565.312 373.312a53.312 53.312 0 1 0-106.624 0 53.312 53.312 0 0 0 106.624 0zM704 320a53.312 53.312 0 1 1 0 106.688A53.312 53.312 0 0 1 704 320z"  horiz-adv-x="1024" />
      
      <glyph glyph-name="a-chicun16leibieshangpin" unicode="&#59057;" d="M309.312 629.312V704c0 64.768 52.544 117.312 117.376 117.312h170.624c64.832 0 117.376-52.48 117.376-117.312v-74.688h59.008c61.632 0 112.768-47.744 117.056-109.248l30.912-448a117.312 117.312 0 0 0-117.12-125.44H219.456c-67.968 0-121.728 57.6-117.056 125.44l30.912 448a117.312 117.312 0 0 0 117.12 109.248h58.944z m64 74.688v-74.688h277.376V704a53.312 53.312 0 0 1-53.376 53.312H426.688A53.312 53.312 0 0 1 373.312 704z m-64-138.688h-59.008a53.312 53.312 0 0 1-53.184-49.664l-30.912-448a53.312 53.312 0 0 1 53.184-56.96h585.216a53.312 53.312 0 0 1 53.12 56.96l-30.848 448a53.312 53.312 0 0 1-53.184 49.664h-59.008v-74.624a32 32 0 1 0-64 0V565.312H373.312v-74.624a32 32 0 0 0-64 0V565.312z"  horiz-adv-x="1024" />
      
      <glyph glyph-name="a-chicun16leibiezuanshi" unicode="&#59058;" d="M207.04 784.128a32 32 0 0 0 27.648 15.872h554.624a32 32 0 0 0 27.648-15.872l149.376-256a32 32 0 0 0-3.072-36.608l-426.688-512a32 32 0 0 0-49.152 0l-426.688 512a32 32 0 0 0-3.072 36.608l149.376 256z m22.848-87.872L141.056 544h152.32l-63.488 152.32zM318.272 480H153.664l274.368-329.216L318.272 480z m277.76-329.216L870.272 480h-164.608l-109.76-329.216z m42.24 329.216H385.728L512 101.184 638.272 480z m92.416 64h152.32l-88.896 152.32-63.424-152.32z m10.624 192H571.776l104.32-156.48 65.28 156.48z m-118.4-192L512 710.336 401.152 544h221.696z m-275.008 35.52L452.224 736h-169.6l65.28-156.48z"  horiz-adv-x="1024" />
      
      <glyph glyph-name="a-chicun16leibiedajiadian-xiyiji" unicode="&#59059;" d="M469.312 298.688a42.688 42.688 0 1 1 0 85.312 42.688 42.688 0 0 1 0-85.312zM512 85.312A213.312 213.312 0 1 1 512 512a213.312 213.312 0 0 1 0-426.688z m0 64A149.312 149.312 0 1 0 512 448a149.312 149.312 0 0 0 0-298.688zM576 682.688a32 32 0 0 0 32 32h128a32 32 0 0 0 0-64h-128a32 32 0 0 0-32 32zM128 725.312v-682.624c0-47.168 38.208-85.376 85.312-85.376h597.376c47.104 0 85.312 38.208 85.312 85.376V725.312c0 47.168-38.208 85.376-85.312 85.376H213.312C166.208 810.688 128 772.48 128 725.312z m64-170.624h640v-512c0-11.776-9.6-21.376-21.312-21.376H213.312A21.312 21.312 0 0 0 192 42.688v512z m0 64V725.312c0 11.84 9.6 21.376 21.312 21.376h597.376c11.776 0 21.312-9.6 21.312-21.376v-106.624H192z"  horiz-adv-x="1024" />
      
      <glyph glyph-name="a-chicun16leibieshipin" unicode="&#59060;" d="M352 644.864a106.688 106.688 0 1 1-64 0v-49.344a277.376 277.376 0 1 1 181.568-509.12A277.312 277.312 0 1 1 736 510.144v49.408a106.688 106.688 0 1 1-64 0v-49.408a275.648 275.648 0 0 1-117.568-41.92A277.312 277.312 0 0 1 352 595.52v49.344zM320 704a42.688 42.688 0 1 0 0 85.312A42.688 42.688 0 0 0 320 704z m384-85.312A42.688 42.688 0 1 0 704 704a42.688 42.688 0 0 0 0-85.312zM441.6 144.64a213.312 213.312 0 1 0 62.848 282.56 276.416 276.416 0 0 1-77.76-192.64c0-31.488 5.248-61.76 14.912-89.92z m140.8 265.28a213.312 213.312 0 1 0-62.848-282.56A276.48 276.48 0 0 1 597.312 320c0 31.488-5.248 61.76-14.912 89.984z m-52.48-51.904a212.352 212.352 0 0 0-35.84-161.472 212.352 212.352 0 0 0 35.84 161.472z"  horiz-adv-x="1024" />
      
      <glyph glyph-name="a-chicun16leibieshuma-erji" unicode="&#59061;" d="M85.312 384a426.688 426.688 0 0 0 853.376 0v-341.312c0-47.168-38.208-85.376-85.376-85.376h-128A85.312 85.312 0 0 0 640 42.688v170.624c0 47.168 38.208 85.376 85.312 85.376h128c7.36 0 14.528-0.96 21.376-2.688V384A362.688 362.688 0 0 1 149.312 384v-88c6.848 1.728 14.016 2.688 21.376 2.688h128C345.792 298.688 384 260.48 384 213.312v-170.624c0-47.168-38.208-85.376-85.312-85.376h-128a85.312 85.312 0 0 0-85.376 85.376V384z m789.376-170.496a21.312 21.312 0 0 1-21.376 21.12h-128a21.312 21.312 0 0 1-21.312-21.312v-170.624c0-11.776 9.6-21.376 21.312-21.376h128c11.776 0 21.376 9.6 21.376 21.376v170.816z m-725.376-0.192v-170.624c0-11.776 9.6-21.376 21.376-21.376h128c11.776 0 21.312 9.6 21.312 21.376v170.624a21.312 21.312 0 0 1-21.312 21.376h-128a21.312 21.312 0 0 1-21.376-21.376z"  horiz-adv-x="1024" />
      
      <glyph glyph-name="a-chicun16leibiemeizhuang" unicode="&#59062;" d="M395.52 789.312a32 32 0 0 1-44.288 29.568l-153.6-64a32 32 0 0 1-19.712-29.568V544h-19.2a32 32 0 0 1-32-32v-117.312h-10.688a32 32 0 0 1-32-32V64c0-64.768 52.544-117.312 117.376-117.312h170.624c64.832 0 117.376 52.48 117.376 117.312V362.688a32 32 0 0 1-32 32H446.72V512a32 32 0 0 1-32 32h-19.2V789.312zM209.92 480H382.72v-85.312h-192V480h19.2z m-51.2-149.312H425.344V64c0-29.44-23.808-53.312-53.312-53.312H201.408A53.312 53.312 0 0 0 148.032 64V330.688h10.688zM241.92 544V704l89.6 37.312V544h-89.6zM608 480A32 32 0 0 1 576 448v-384c0-64.832 52.48-117.312 117.312-117.312h128c64.832 0 117.376 52.48 117.376 117.312V448a32 32 0 0 1-32 32H608zM640 64V416h234.688V64c0-29.44-23.872-53.312-53.376-53.312h-128A53.312 53.312 0 0 0 640 64z"  horiz-adv-x="1024" />
      
      <glyph glyph-name="a-chicun16leibiequanbu" unicode="&#59063;" d="M85.312 725.312c0 47.168 38.208 85.376 85.376 85.376H384c47.104 0 85.312-38.208 85.312-85.376V512c0-47.104-38.208-85.312-85.312-85.312H170.688A85.312 85.312 0 0 0 85.312 512V725.312z m85.376 21.376a21.312 21.312 0 0 1-21.376-21.376V512c0-11.776 9.6-21.312 21.376-21.312H384c11.776 0 21.312 9.536 21.312 21.312V725.312A21.312 21.312 0 0 1 384 746.688H170.688zM554.688 725.312c0 47.168 38.208 85.376 85.312 85.376h213.312c47.168 0 85.376-38.208 85.376-85.376V512c0-47.104-38.208-85.312-85.376-85.312H640A85.312 85.312 0 0 0 554.688 512V725.312zM640 746.688a21.312 21.312 0 0 1-21.312-21.376V512c0-11.776 9.536-21.312 21.312-21.312h213.312c11.776 0 21.376 9.536 21.376 21.312V725.312a21.312 21.312 0 0 1-21.376 21.376H640zM746.688 354.112a204.8 204.8 0 1 1 0-409.6 204.8 204.8 0 0 1 0 409.6z m-140.8-204.8a140.8 140.8 0 1 0 281.6 0 140.8 140.8 0 0 0-281.6 0zM85.312 256c0 47.104 38.208 85.312 85.376 85.312H384c47.104 0 85.312-38.208 85.312-85.312v-213.312c0-47.168-38.208-85.376-85.312-85.376H170.688a85.312 85.312 0 0 0-85.376 85.376V256z m85.376 21.312a21.312 21.312 0 0 1-21.376-21.312v-213.312c0-11.776 9.6-21.376 21.376-21.376H384c11.776 0 21.312 9.6 21.312 21.376V256A21.312 21.312 0 0 1 384 277.312H170.688z"  horiz-adv-x="1024" />
      
      <glyph glyph-name="a-chicun16leibieyundonghuwai" unicode="&#59049;" d="M643.84 619.52l-60.544-34.88a85.312 85.312 0 1 0-85.376 147.84l110.848 64a85.312 85.312 0 0 0 127.68-81.344 31.808 31.808 0 0 0-1.28-9.216l-0.128-0.64a85.632 85.632 0 0 0-3.584-12.544L627.392 331.008l120.576-133.12a32.192 32.192 0 0 0 3.968-5.44l66.304 6.08c37.312-2.368 75.072-20.672 97.536-51.008 37.12-50.368 28.736-124.928-18.496-162.816-17.408-13.568-38.336-21.952-60.352-24.064L177.92-39.232c-51.008 0-92.544 39.936-92.544 88.832 0.064 50.688 41.984 84.16 90.112 88.768 113.28 10.752 226.56 21.504 339.84 32.064a32.128 32.128 0 0 0 1.216 6.464l77.312 268.8-271.168 5.952a32 32 0 1 0 1.408 64l288-6.272 31.744 110.208z m-113.92 57.472a21.312 21.312 0 0 1 21.376-36.928l110.848 64a21.184 21.184 0 0 1 8.704 9.536l1.792 6.208a21.312 21.312 0 0 1-31.808 21.184l-110.912-64z m76.672-418.368l-23.552-81.856 90.112 8.384-66.56 73.472z m-428.736-233.856l655.36-0.128a52.544 52.544 0 0 1 24.32 10.24c18.752 15.36 24.576 50.56 6.72 74.624-9.152 12.352-26.624 22.4-45.888 24.768-212.288-19.456-424.576-39.424-636.8-59.584a44.48 44.48 0 0 1-25.728-10.368 18.688 18.688 0 0 1-6.528-14.72c0-11.136 10.432-24.832 28.544-24.832z"  horiz-adv-x="1024" />
      
      <glyph glyph-name="a-chicun16leibiemuying" unicode="&#59050;" d="M405.312 426.688a42.688 42.688 0 1 0-85.312 0 42.688 42.688 0 0 0 85.312 0zM661.312 384a42.688 42.688 0 1 1 0 85.312 42.688 42.688 0 0 1 0-85.312zM429.312 270.72a32 32 0 0 1-56.896-29.44c11.776-22.656 33.344-39.04 56.832-49.472a204.8 204.8 0 0 1 82.752-16.64 204.8 204.8 0 0 1 82.752 16.64c23.488 10.432 45.056 26.816 56.832 49.536a32 32 0 1 1-56.96 29.312c-2.816-5.504-10.56-13.568-25.984-20.48-14.848-6.592-34.496-10.944-56.64-10.944s-41.792 4.352-56.64 11.008c-15.36 6.848-23.168 14.912-26.048 20.48zM905.6 486.08C862.272 672.448 702.464 810.688 512 810.688c-190.4 0-350.208-138.24-393.6-324.608a106.688 106.688 0 0 1 0-204.16c43.392-186.368 203.2-324.608 393.6-324.608 190.464 0 350.208 138.24 393.6 324.608a106.688 106.688 0 0 1 0 204.16z m-62.272-189.632c-37.376-160.128-173.44-275.136-331.328-275.136-157.952 0-293.952 115.008-331.328 275.136a64 64 0 0 1-43.776 46.72 42.688 42.688 0 0 0 0 81.664 64 64 0 0 1 43.776 46.72C204.8 574.976 270.08 659.584 355.84 706.56c24-86.656 72.64-158.592 169.728-182.848a32 32 0 0 1 36.416 16.704c9.664 19.392 18.56 32.192 28.672 42.368 10.112 10.112 22.912 18.944 42.304 28.672a32 32 0 0 1-28.608 57.216c-23.232-11.648-42.432-24.128-59.008-40.64-10.432-10.432-19.2-21.952-27.264-34.816-54.464 22.08-85.184 69.504-102.72 138.688 30.72 9.664 63.168 14.848 96.64 14.848 157.952 0 293.952-115.008 331.328-275.136a64 64 0 0 1 43.776-46.72 42.688 42.688 0 0 0 0-81.664 64 64 0 0 1-43.776-46.72z"  horiz-adv-x="1024" />
      
      <glyph glyph-name="a-chicun16leibiexieleixiangbao" unicode="&#59051;" d="M365.824 756.48a32 32 0 0 0 30.528-15.232c23.872-39.36 65.28-68.992 111.36-87.232 46.272-18.432 93.248-23.616 124.8-18.24a32 32 0 0 0 36.672-24.768c4.48-20.8 19.712-74.368 39.808-129.92 11.264-31.232 23.872-62.336 36.608-88.128 9.472-19.2 18.432-34.048 26.24-43.712 8-9.984 19.328-21.696 33.152-35.136 7.936-7.68 16.768-16 25.984-24.704 22.272-21.12 46.848-44.224 66.816-66.304 14.272-15.872 27.712-32.64 37.248-49.664 9.216-16.448 17.024-36.928 14.08-58.624-5.76-42.176-36.8-67.392-67.584-81.6-36.096-16.704-80.32-22.784-114.816-24.32-32.832-1.408-80.704 1.472-128.64 9.088-47.424 7.552-98.496 20.288-135.808 40.448-33.92 18.368-124.8 76.672-207.104 130.176-41.536 27.008-81.408 53.12-111.68 73.024L179.2 264.384l-33.088 21.696a3200.32 3200.32 0 0 1-11.264 7.36l-3.456 2.176-0.96 0.64-0.32 0.192c-18.24 10.944-51.328 39.936-55.04 89.216a31.744 31.744 0 0 0 0 2.368c0 25.92 10.368 55.296 23.808 83.2 28.16 58.048 78.208 126.208 126.976 180.16a659.84 659.84 0 0 0 71.872 69.632c11.2 9.024 22.4 17.024 33.088 23.04 10.048 5.76 22.208 11.136 34.944 12.416zM168.896 466.688a3878.4 3878.4 0 0 1 66.88-45.44 28481.6 28481.6 0 0 1 422.72-275.008c23.872-15.04 57.728-32 94.72-43.328 35.776-10.88 72.32-15.744 104.768-10.048 18.816 9.472 26.24 19.968 27.712 30.592 0.192 1.536 0 7.232-6.4 18.688-6.208 10.88-16 23.68-28.992 38.016-18.176 20.096-39.552 40.32-60.992 60.544a4094.336 4094.336 0 0 0-18.88 17.856l-109.888-5.312a32 32 0 1 0-3.072 63.936l56.448 2.688a301.312 301.312 0 0 0-16 26.176l-106.24-4.032a32 32 0 1 0-2.432 64l78.976 2.944c-3.84 9.344-7.68 18.88-11.328 28.48l-115.392-4.032a32 32 0 1 0-2.24 64l95.232 3.264a1430.784 1430.784 0 0 0-20.928 69.184c-40.064-1.088-86.208 7.488-129.472 24.64-46.848 18.56-93.44 48.384-126.72 90.88-5.632-3.584-12.16-8.32-19.392-14.208-19.136-15.36-41.6-37.12-64.64-62.72-39.424-43.648-78.528-95.872-104.448-141.76z m471.552-384.256c-5.632 3.2-11.008 6.4-16 9.6A28322.176 28322.176 0 0 0 200.192 368c-22.144 14.72-41.984 28.16-57.92 39.232a77.44 77.44 0 0 1-3.2-18.048c2.048-20.288 16.064-33.088 24.064-37.888 3.52-2.112 24.192-15.68 54.08-35.2 30.72-20.224 71.232-46.72 112.896-73.792 83.52-54.4 171.52-110.72 202.624-127.552 26.176-14.144 65.536-25.088 107.712-32.32z"  horiz-adv-x="1024" />
      
      <glyph glyph-name="a-chicun16leibiejiaju-shafa" unicode="&#59052;" d="M298.688 800c-64.832 0-117.376-52.48-117.376-117.312v-128h-11.456c-54.4 0-94.912-50.304-83.392-103.488l69.568-320c8.576-39.232 43.264-67.2 83.392-67.2h16.256l-29.44-73.472a32 32 0 0 1 59.52-23.744L324.544 64h374.784l38.912-97.28a32 32 0 1 1 59.392 23.808L768.32 64h16.256c40.128 0 74.88 27.968 83.392 67.2l69.568 320a85.312 85.312 0 0 1-83.392 103.488h-11.52v128c0 64.768-52.48 117.312-117.312 117.312H298.688z m480-245.312h-9.536c-38.4 0-72.192-25.792-82.304-62.912L640 320H384l-46.848 171.776a85.312 85.312 0 0 1-82.304 62.912h-9.536v128c0 29.44 23.872 53.312 53.376 53.312h426.624c29.44 0 53.376-23.872 53.376-53.312v-128zM384 256h256a64 64 0 0 1 61.76 47.168l46.848 171.776a21.312 21.312 0 0 0 20.544 15.744h84.992c13.568 0 23.68-12.608 20.8-25.856l-69.568-320a21.312 21.312 0 0 0-20.8-16.832H239.36a21.312 21.312 0 0 0-20.8 16.832l-69.568 320a21.312 21.312 0 0 0 20.8 25.856h84.992c9.6 0 18.048-6.4 20.544-15.744l46.848-171.776A64 64 0 0 1 384 256z"  horiz-adv-x="1024" />
      
      <glyph glyph-name="a-chicun16leibiexiaojiadian-dianfanbao" unicode="&#59053;" d="M512 85.312a42.688 42.688 0 1 1 0 85.376 42.688 42.688 0 0 1 0-85.376zM330.688 682.688V736c0 41.216 33.408 74.688 74.624 74.688h213.376c41.216 0 74.624-33.472 74.624-74.688v-53.312H768c47.104 0 85.312-38.208 85.312-85.376V480h64a32 32 0 1 0 0-64h-64v-373.312c0-47.168-38.208-85.376-85.312-85.376H256a85.312 85.312 0 0 0-85.312 85.376V416h-64a32 32 0 0 0 0 64h64V597.312c0 47.168 38.208 85.376 85.312 85.376h74.688z m64 53.312v-53.312h234.624V736a10.688 10.688 0 0 1-10.624 10.688H405.312a10.688 10.688 0 0 1-10.624-10.688z m394.624-138.688A21.312 21.312 0 0 1 768 618.688H256a21.312 21.312 0 0 1-21.312-21.376V480h554.624V597.312z m-554.624-554.624c0-11.776 9.536-21.376 21.312-21.376h74.688v213.376c0 41.216 33.408 74.624 74.624 74.624h213.376c41.216 0 74.624-33.408 74.624-74.624v-213.376H768c11.776 0 21.312 9.6 21.312 21.376V416H234.688v-373.312z m394.624-21.376v213.376a10.688 10.688 0 0 1-10.624 10.624H405.312a10.688 10.688 0 0 1-10.624-10.624v-213.376h234.624z"  horiz-adv-x="1024" />
      
      <glyph glyph-name="qushuiyin" unicode="&#59047;" d="M409.6 824.32a30.72 30.72 0 0 0 23.424-10.88c23.488-27.52 49.664-55.744 77.12-85.312l20.16-21.76a1829.824 1829.824 0 0 0 101.76-117.44c63.232-81.344 115.456-173.696 115.456-277.184 0-31.68-3.712-62.592-10.688-92.032l126.08-92.544a30.72 30.72 0 0 0-36.288-49.536l-768 563.2a30.72 30.72 0 0 0 36.352 49.536L204.16 610.304c27.136 33.28 56.32 65.28 84.672 96.064l20.224 21.76c27.392 29.568 53.632 57.728 77.056 85.376A30.72 30.72 0 0 0 409.6 824.32zM253.824 573.888l428.352-314.112c2.56 16.832 3.904 34.176 3.904 51.968 0 82.752-41.92 161.472-102.528 239.488-30.144 38.72-64.064 76.352-98.368 113.408l-19.648 21.248A4119.04 4119.04 0 0 0 409.6 746.88c-17.92-20.16-36.864-40.512-55.936-60.992l-19.648-21.248c-27.52-29.824-54.912-59.968-80.192-90.752zM628.992 125.056l50.24-35.2c-61.248-88.32-158.4-146.176-269.632-146.176-189.248 0-337.92 167.552-337.92 368 0 61.056 18.176 118.144 46.016 171.392l50.752-35.52c-22.208-44.416-35.328-89.472-35.328-135.808 0-172.16 126.4-306.624 276.48-306.624 88.32 0 168.384 46.528 219.392 119.936zM845.824 787.712a11.2 11.2 0 0 0 21.184 0l25.536-75.776a11.2 11.2 0 0 1 6.4-6.784l71.68-29.184a11.2 11.2 0 0 0 0-20.736l-71.68-29.184a11.2 11.2 0 0 1-6.4-6.784l-25.536-75.776a11.2 11.2 0 0 0-21.12 0l-25.536 75.776a11.136 11.136 0 0 1-6.4 6.784l-71.68 29.184a11.2 11.2 0 0 0 0 20.736l71.68 29.184a11.136 11.136 0 0 1 6.4 6.784l25.472 75.776z"  horiz-adv-x="1024" />
      
      <glyph glyph-name="jiashuiyin" unicode="&#59048;" d="M433.024 813.44a30.72 30.72 0 0 1-46.848 0c-23.424-27.52-49.664-55.744-77.12-85.312l-20.16-21.76a1830.08 1830.08 0 0 1-101.76-117.44C124.032 507.584 71.68 415.232 71.68 311.744c0-200.512 148.672-368.064 337.92-368.064 189.248 0 337.92 167.552 337.92 368 0 103.552-52.224 195.84-115.52 277.248a1830.08 1830.08 0 0 1-101.696 117.44l-20.16 21.76a2669.248 2669.248 0 0 0-77.12 85.376zM133.12 311.68c0 82.816 41.92 161.536 102.592 239.552 30.08 38.72 64 76.352 98.304 113.408l19.648 21.248c19.008 20.48 37.952 40.832 55.936 60.992 17.92-20.16 36.928-40.512 55.936-60.992l19.648-21.248c34.304-37.12 68.224-74.688 98.304-113.408 60.672-78.08 102.592-156.8 102.592-239.488 0-172.16-126.4-306.624-276.48-306.624s-276.48 134.528-276.48 306.56zM867.008 787.712a11.136 11.136 0 0 1-21.12 0l-25.536-75.776a11.2 11.2 0 0 0-6.4-6.784l-71.68-29.184a11.2 11.2 0 0 1 0-20.736l71.68-29.184c3.008-1.28 5.376-3.712 6.4-6.784l25.472-75.776a11.136 11.136 0 0 1 21.184 0l25.536 75.776a11.136 11.136 0 0 0 6.4 6.784l71.68 29.184a11.2 11.2 0 0 1 0 20.736l-71.68 29.184a11.136 11.136 0 0 0-6.4 6.784l-25.536 75.776z"  horiz-adv-x="1024" />
      
      <glyph glyph-name="moteshengcheng-yinger" unicode="&#59046;" d="M512 824.32a179.2 179.2 0 0 1-137.728-293.888c-43.968-14.912-90.816-37.952-132.352-64.128-51.456-32.384-99.712-72.704-122.624-112.704-14.976-26.24-19.2-55.04-5.312-83.456 13.44-27.456 53.312-59.456 100.992-42.176 19.84 7.232 40 15.68 59.072 24.384-20.16-47.488-35.328-110.08-19.84-173.952 17.728-72.576 62.08-113.664 99.968-131.008 16.768-7.68 35.328-10.24 52.288-8 16.64 2.112 34.752 9.28 47.36 24.128 12.032 14.08 19.456 30.08 19.648 51.584 0.128 18.688-5.376 40-13.824 65.344-3.712 11.072-2.944 17.28-1.92 20.48a18.048 18.048 0 0 0 7.36 9.344c10.048 7.296 28.16 11.712 46.912 11.712s36.864-4.416 46.912-11.712c4.48-3.2 6.464-6.272 7.424-9.344 0.96-3.2 1.728-9.408-1.984-20.48-8.448-25.344-13.952-46.72-13.824-65.344 0.128-21.44 7.616-37.568 19.584-51.584 12.672-14.848 30.72-22.016 47.36-24.128 17.024-2.24 35.584 0.256 52.352 7.936 37.888 17.408 82.24 58.496 99.904 131.072 15.552 63.936 0.384 126.464-19.84 173.952 19.136-8.704 39.296-17.152 59.136-24.32 47.68-17.28 87.488 14.656 100.992 42.112 13.888 28.352 9.664 57.28-5.312 83.456-22.976 40-71.168 80.32-122.624 112.704a648.064 648.064 0 0 1-132.352 64.128A179.2 179.2 0 0 1 512 824.32z m80-339.584a30.72 30.72 0 0 1 9.216-3.968c44.928-11.136 99.712-35.968 148.096-66.432 49.28-30.976 86.848-64.704 102.08-91.328 7.296-12.8 6.4-19.84 3.456-25.792a25.6 25.6 0 0 0-10.688-10.304 16.896 16.896 0 0 0-14.208-1.152c-61.056 22.08-126.848 58.368-148.736 70.656a30.72 30.72 0 0 1-35.648-49.536c1.728-1.6 8.704-9.408 18.112-23.552 9.024-13.44 19.328-31.296 28.288-51.84 18.24-41.6 29.568-91.2 18.048-138.56-13.056-53.632-44.352-79.872-65.792-89.728a35.456 35.456 0 0 0-18.816-2.88 21.888 21.888 0 0 0-6.528 1.792c-1.536 0.704-2.048 1.28-2.048 1.28-3.904 4.608-4.8 7.04-4.864 12.16 0 7.68 2.432 20.672 10.688 45.504 6.72 20.224 7.936 39.872 2.368 57.92a79.232 79.232 0 0 1-30.08 41.088c-24.96 18.048-58.048 23.36-82.944 23.36-24.96 0-57.984-5.312-82.944-23.36a79.232 79.232 0 0 1-30.08-41.088c-5.568-18.048-4.352-37.76 2.368-57.92 8.32-24.832 10.752-37.76 10.688-45.568 0-4.992-0.96-7.488-4.928-12.096 0 0-0.448-0.576-1.92-1.28a21.888 21.888 0 0 0-6.592-1.792 35.456 35.456 0 0 0-18.816 2.88c-21.44 9.856-52.736 36.096-65.792 89.728-11.52 47.36-0.192 96.96 17.984 138.624 8.96 20.48 19.328 38.272 28.352 51.84a162.56 162.56 0 0 0 18.112 23.488 30.72 30.72 0 0 1-35.648 49.536c-21.888-12.288-87.68-48.576-148.736-70.656a16.896 16.896 0 0 0-14.208 1.152 25.6 25.6 0 0 0-10.688 10.304c-2.944 6.016-3.84 13.056 3.456 25.792 15.232 26.624 52.864 60.352 102.08 91.328 48.384 30.464 103.168 55.296 148.096 66.432a30.72 30.72 0 0 1 9.216 3.968c24.064-12.032 51.2-18.816 80-18.816 28.8 0 55.936 6.784 80 18.816zM394.24 645.12a117.76 117.76 0 1 0 235.52 0 117.76 117.76 0 0 0-235.52 0zM178.56 716.16a9.152 9.152 0 0 0 17.408 0l20.864-63.232c0.832-2.56 2.752-4.544 5.12-5.568l59.2-24.512a9.152 9.152 0 0 0 0-16.896l-59.136-24.512a9.152 9.152 0 0 1-5.184-5.568l-20.864-63.168a9.152 9.152 0 0 0-17.344 0l-20.928 63.168a9.152 9.152 0 0 1-5.12 5.568l-59.2 24.512a9.152 9.152 0 0 0 0 16.896l59.136 24.512a9.152 9.152 0 0 1 5.184 5.568l20.928 63.168zM867.008 787.712a11.2 11.2 0 0 1-21.12 0l-25.6-75.776a11.136 11.136 0 0 0-6.336-6.784l-71.68-29.184a11.2 11.2 0 0 1 0-20.736l71.68-29.184c3.008-1.28 5.376-3.712 6.4-6.784l25.472-75.776a11.2 11.2 0 0 1 21.184 0l25.472 75.776a11.2 11.2 0 0 0 6.4 6.784l71.744 29.184a11.2 11.2 0 0 1 0 20.736l-71.68 29.184a11.2 11.2 0 0 0-6.4 6.784l-25.536 75.776z"  horiz-adv-x="1024" />
      
      <glyph glyph-name="shuiyinweizhi-bian" unicode="&#59038;" d="M248 768c-16.192 0-31.744-3.2-45.952-9.088a32 32 0 0 1 24.512-59.136A55.68 55.68 0 0 0 248 704a32 32 0 0 1 0 64z m525.824 0a32 32 0 0 1 0-64h2.176a55.68 55.68 0 0 0 21.44-4.224 32 32 0 0 1 24.512 59.136A119.744 119.744 0 0 1 776 768h-2.176z m113.088-74.048a32 32 0 0 1-59.136-24.512 55.68 55.68 0 0 0 4.224-21.44v-65.984a32 32 0 0 1 64 0V648c0 16.192-3.2 31.744-9.152 45.952zM196.224 669.44a32 32 0 1 1-59.136 24.512A119.744 119.744 0 0 1 128 648v-65.984a32 32 0 0 1 64 0V648a55.68 55.68 0 0 0 4.224 21.44zM192 449.92a32 32 0 0 1-64 0V318.08a32 32 0 0 1 64 0V449.92z m704 0a32 32 0 0 1-64 0V318.08a32 32 0 0 1 64 0V449.92zM192 185.984a32 32 0 1 1-64 0v-65.984C128 53.696 181.76 0 248 0h65.984a32 32 0 0 1 0 64H248A56 56 0 0 0 192 120v65.984z m704 0a32 32 0 1 1-64 0v-65.984a56 56 0 0 0-56-56h-65.984a32 32 0 1 1 0-64h65.984C842.304 0 896 53.76 896 120v65.984zM446.016 64a32 32 0 0 1 0-64H577.92a32 32 0 0 1 0 64H446.08zM427.968 768C386.048 768 352 733.952 352 691.968v-167.936C352 482.048 386.048 448 428.032 448h168c41.92 0 75.968 34.048 75.968 76.032V691.968C672 733.952 637.952 768 595.968 768H428.032zM416 691.968c0 6.656 5.376 12.032 12.032 12.032h168c6.592 0 11.968-5.376 11.968-12.032v-167.936A12.032 12.032 0 0 0 595.968 512H428.032a12.032 12.032 0 0 0-12.032 12.032V691.968z"  horiz-adv-x="1024" />
      
      <glyph glyph-name="shuiyinweizhi-zhong" unicode="&#59043;" d="M192 648C192 678.912 217.088 704 248 704h65.984a32 32 0 0 1 0 64H248C181.696 768 128 714.24 128 648v-65.984a32 32 0 0 1 64 0V648zM446.016 768a32 32 0 0 1 0-64H577.92a32 32 0 0 1 0 64H446.08z m264 0a32 32 0 1 1 0-64h65.984c30.912 0 56-25.088 56-56v-65.984a32 32 0 0 1 64 0V648C896 714.304 842.24 768 776 768h-65.984zM192 449.984a32 32 0 0 1-64 0V318.08a32 32 0 0 1 64 0V449.92z m704 0a32 32 0 0 1-64 0V318.08a32 32 0 0 1 64 0V449.92zM192 185.984a32 32 0 1 1-64 0v-65.984C128 53.696 181.76 0 248 0h65.984a32 32 0 0 1 0 64H248A56 56 0 0 0 192 120v65.984z m704 0a32 32 0 1 1-64 0v-65.984a56 56 0 0 0-56-56h-65.984a32 32 0 1 1 0-64h65.984C842.304 0 896 53.76 896 120v65.984zM446.016 64a32 32 0 0 1 0-64H577.92a32 32 0 0 1 0 64H446.08z m-18.048 480c-41.92 0-75.968-34.048-75.968-76.032v-168c0-41.92 34.048-75.968 76.032-75.968h168c41.92 0 75.968 34.048 75.968 76.032V467.968c0 41.984-34.048 76.032-76.032 76.032H428.032zM416 467.968c0 6.656 5.376 12.032 12.032 12.032h168c6.592 0 11.968-5.376 11.968-12.032v-168a12.032 12.032 0 0 0-12.032-11.968H428.032a12.032 12.032 0 0 0-12.032 12.032V467.968z"  horiz-adv-x="1024" />
      
      <glyph glyph-name="shuiyinweizhi-ziyou" unicode="&#59044;" d="M192 648C192 678.912 217.088 704 248 704h132.032a32 32 0 1 1 0 64H248C181.696 768 128 714.24 128 648v-132.032a32 32 0 1 1 64 0V648z m0-528c0-30.912 25.088-56 56-56h132.032a32 32 0 0 0 0-64H248A120 120 0 0 0 128 120v131.968a32 32 0 0 0 64 0v-131.968zM776 704c30.912 0 56-25.088 56-56v-132.032a32 32 0 0 1 64 0V648C896 714.304 842.24 768 776 768h-132.032a32 32 0 1 1 0-64h132.032zM832 120a56 56 0 0 0-56-56h-132.032a32 32 0 0 1 0-64h132.032C842.304 0 896 53.76 896 120v131.968a32 32 0 0 1-64 0v-131.968z"  horiz-adv-x="1024" />
      
      <glyph glyph-name="shuiyinweizhi-jiao" unicode="&#59045;" d="M600 768a32 32 0 0 1 0-64h44.032a32 32 0 0 1 0 64h-44.032z m132.032 0a32 32 0 0 1 0-64h43.968c30.912 0 56-25.088 56-56v-65.984a32 32 0 0 1 64 0V648C896 714.304 842.24 768 776 768h-44.032zM896 449.984a32 32 0 0 1-64 0V318.08a32 32 0 0 1 64 0V449.92zM192 296a32 32 0 0 1-64 0v-44.032a32 32 0 0 1 64 0v44.032z m704-110.016a32 32 0 1 1-64 0v-65.984a56 56 0 0 0-56-56h-65.984a32 32 0 1 1 0-64h65.984C842.304 0 896 53.76 896 120v65.984z m-704-22.016a32 32 0 0 1-64 0v-43.968C128 53.696 181.76 0 248 0h65.984a32 32 0 0 1 0 64H248A56 56 0 0 0 192 120v44.032zM446.016 64a32 32 0 0 1 0-64H577.92a32 32 0 0 1 0 64H446.08zM202.688 768C161.408 768 128 734.592 128 693.312v-170.624C128 481.408 161.408 448 202.688 448h170.624C414.592 448 448 481.408 448 522.688V693.312C448 734.592 414.592 768 373.312 768H202.688zM192 693.312C192 699.2 196.8 704 202.688 704h170.624c5.888 0 10.688-4.8 10.688-10.688v-170.624A10.688 10.688 0 0 0 373.312 512H202.688A10.688 10.688 0 0 0 192 522.688V693.312z"  horiz-adv-x="1024" />
      
      <glyph glyph-name="rentaimote1" unicode="&#59042;" d="M873.6 818.56a9.152 9.152 0 0 0 17.344 0l20.928-63.232c0.832-2.56 2.688-4.544 5.12-5.568l59.2-24.512a9.152 9.152 0 0 0 0-16.896l-59.2-24.512a9.152 9.152 0 0 1-5.12-5.568l-20.928-63.168a9.152 9.152 0 0 0-17.28 0l-20.928 63.168a9.152 9.152 0 0 1-5.184 5.568l-59.2 24.512a9.152 9.152 0 0 0 0 16.896l59.2 24.512a9.152 9.152 0 0 1 5.12 5.568l20.928 63.168zM410.24 793.6a30.72 30.72 0 0 0 30.72 30.72h139.52a30.72 30.72 0 0 0 30.72-30.72v-43.648c10.368-3.84 20.992-7.488 31.936-11.264l16.192-5.632c23.296-8.128 47.808-17.216 71.168-28.992 17.152-8.704 28.032-17.6 33.664-24.704a30.72 30.72 0 0 0 6.528-19.008v-94.272a30.72 30.72 0 0 0-20.416-28.928c-31.744-11.264-49.856-42.496-49.856-82.112 0-96.192 17.28-193.088 34.752-291.52l5.504-31.104a30.72 30.72 0 0 0-30.208-36.032H542.72v-91.264h122.88a30.72 30.72 0 1 0 0-61.44H358.4a30.72 30.72 0 1 0 0 61.44h122.88v91.2H311.04a30.72 30.72 0 0 0-30.272 36.032l5.76 32.512c17.28 97.792 34.432 194.496 34.432 290.176 0 39.68-17.984 70.912-49.536 81.984a30.72 30.72 0 0 0-20.544 28.992V660.288a30.72 30.72 0 0 0 7.04 19.52c10.368 12.672 24.96 20.096 32.64 24L291.2 704a585.92 585.92 0 0 0 71.104 28.928l15.488 5.376c11.136 3.84 21.952 7.552 32.512 11.456V793.6z m61.44-30.72v-34.112a30.72 30.72 0 0 0-19.136-28.416c-18.304-7.552-37.504-14.08-55.68-20.416l-14.336-4.928a526.72 526.72 0 0 1-63.68-25.792 160 160 0 0 1-6.528-3.456v-59.904c48.96-27.072 70.08-80.448 70.08-130.816 0-100.288-17.728-201.216-34.752-297.28h326.144c-17.152 96.192-34.816 196.928-34.816 297.28 0 50.688 21.504 103.68 70.272 130.816v59.776a101.632 101.632 0 0 1-6.464 3.584 526.4 526.4 0 0 1-63.744 25.856 3466.432 3466.432 0 0 1-14.912 5.184c-18.112 6.208-37.12 12.8-55.232 20.16a30.72 30.72 0 0 0-19.136 28.416V762.88H471.68zM168.64 526.976a11.2 11.2 0 0 1-21.12 0L121.92 451.2a11.2 11.2 0 0 0-6.4-6.784l-71.68-29.248a11.2 11.2 0 0 1 0-20.672l71.68-29.184c3.008-1.28 5.376-3.712 6.4-6.784l25.472-75.776a11.2 11.2 0 0 1 21.184 0l25.536 75.776a11.2 11.2 0 0 0 6.4 6.784l71.68 29.184a11.2 11.2 0 0 1 0 20.672l-71.68 29.248a11.2 11.2 0 0 0-6.4 6.784l-25.536 75.776z"  horiz-adv-x="1024" />
      
      <glyph glyph-name="guanlian-suodingbili-guan" unicode="&#59040;" d="M227.008 524.992a132.544 132.544 0 1 1 0-265.152h155.392a32 32 0 1 0 0-64H227.008a196.544 196.544 0 0 0 0 393.152h155.392a32 32 0 0 0 0-64H227.008zM793.856 524.992a132.544 132.544 0 0 0 0-265.152H638.4a32 32 0 1 1 0-64h155.456a196.544 196.544 0 0 1 0 393.152H638.4a32 32 0 0 1 0-64h155.456zM350.4 422.848a32 32 0 0 1 0-64h320a32 32 0 0 1 0 64h-320z"  horiz-adv-x="1024" />
      
      <glyph glyph-name="guanlian-suodingbili-kai" unicode="&#59041;" d="M94.4 392.384c0 73.216 59.392 132.608 132.608 132.608h155.392a32 32 0 0 1 0 64H227.008a196.544 196.544 0 1 1 0-393.152h155.392a32 32 0 0 1 0 64H227.008a132.544 132.544 0 0 0-132.608 132.544zM926.4 392.384a132.544 132.544 0 0 1-132.544 132.608H638.4a32 32 0 0 0 0 64h155.456a196.544 196.544 0 0 0 0-393.152H638.4a32 32 0 0 0 0 64h155.456a132.544 132.544 0 0 1 132.544 132.544z"  horiz-adv-x="1024" />
      
      <glyph glyph-name="mote-zhenren" unicode="&#59037;" d="M141.184 850.624a7.808 7.808 0 0 0 14.592 0l24.64-66.56c0.832-2.112 2.496-3.84 4.608-4.608l66.56-24.64c6.784-2.496 6.784-12.16 0-14.592l-66.56-24.64a7.808 7.808 0 0 1-4.608-4.608l-24.64-66.56a7.808 7.808 0 0 0-14.592 0l-24.64 66.56a7.808 7.808 0 0 1-4.608 4.608l-66.56 24.64a7.808 7.808 0 0 0 0 14.592l66.56 24.64a7.808 7.808 0 0 1 4.608 4.608l24.64 66.56zM650.304 62.848c162.24 47.232 251.008 145.408 288.512 254.208 39.04 113.472 21.312 235.52-20.672 316.608-42.624 82.432-121.024 141.696-205.056 175.04-83.84 33.28-177.472 42.368-253.44 19.456C313.472 784 259.2 667.072 225.28 565.76A22016.32 22016.32 0 0 0 99.776 492.16a923.008 923.008 0 0 0-14.464-8.128 30.72 30.72 0 0 1 1.344-57.088c25.408-9.408 44.544-17.408 55.232-26.112a19.84 19.84 0 0 0 4.736-4.928 15.936 15.936 0 0 0-1.92-4.48l-1.472-2.624c-11.584-20.608-32.256-57.344-45.248-95.296-6.784-19.84-12.16-41.728-12.288-63.04-0.128-21.568 5.056-44.928 21.888-63.936 28.16-31.68 72.96-42.56 107.648-49.664 7.36-1.536 14.272-2.816 20.928-4.096 10.88-2.112 21.12-4.096 31.36-6.528 16.192-3.712 28.608-7.808 37.696-12.8 17.92-9.856 34.176-29.312 47.872-56.32 13.44-26.688 22.976-57.856 28.992-86.848a30.72 30.72 0 1 1 60.16 12.544 421.12 421.12 0 0 1-34.368 102.016c-16.384 32.448-39.808 64.192-73.088 82.496a210.432 210.432 0 0 1-53.248 18.752 979.392 979.392 0 0 1-35.648 7.36l-18.24 3.584c-36.928 7.616-61.312 15.936-74.112 30.336-3.648 4.032-6.4 10.752-6.4 22.656a144 144 0 0 0 8.96 43.648c11.136 32.384 29.376 64.896 41.216 85.888l0.96 1.792c8.704 15.424 12.48 32.576 7.936 49.92a72.064 72.064 0 0 1-25.6 37.312 129.152 129.152 0 0 1-15.36 10.624l6.272 3.648c31.872 18.688 69.824 41.152 95.04 56.064a30.72 30.72 0 0 1 13.568 16.96c23.552 72.512 53.12 142.528 112.192 189.632-7.936-71.296-12.032-139.136 17.728-201.152 11.776-24.512 34.176-41.216 55.36-53.248 21.632-12.352 46.976-22.4 69.44-31.36l0.384-0.192c23.424-9.344 43.52-17.344 59.136-26.24 16.64-9.344 20.736-15.744 21.504-18.112 1.728-5.44 1.792-14.08-2.688-27.52a224.192 224.192 0 0 0-22.4-44.608c-8.064-13.056-16.832-25.92-25.664-38.848l-6.592-9.6c-10.432-15.36-21.248-31.744-28.16-46.336-5.76-12.16-6.016-25.216-4.928-35.584 1.152-10.816 4.096-22.208 7.808-33.408 7.488-22.464 19.52-48.064 33.088-73.408a1412.48 1412.48 0 0 1 87.04-139.456 30.72 30.72 0 0 1 50.112 35.584 1455.488 1455.488 0 0 0-53.12 80.896z m40.128 688.768c74.048-29.44 139.008-80.192 173.184-146.24 34.816-67.328 50.304-171.904 17.088-268.352-31.552-91.52-108.032-178.688-261.888-219.136a426.112 426.112 0 0 0-27.264 60.736 101.824 101.824 0 0 0-4.992 20.48 24.384 24.384 0 0 0-0.192 3.904c4.672 9.536 12.544 21.632 22.976 36.928 1.92 2.944 4.032 5.888 6.08 8.96 8.96 12.992 18.752 27.392 27.712 41.856 11.008 17.92 21.76 37.568 28.352 57.536 6.528 19.776 10.112 42.816 2.88 65.536-8.192 25.792-30.656 42.112-49.728 52.928-19.328 10.944-42.88 20.288-64.32 28.864l-2.688 1.088c-23.296 9.28-44.544 17.92-61.824 27.712-17.792 10.112-26.752 19.008-30.336 26.496-25.28 52.608-18.496 112-8.32 200.32l0.896 8.192a31.04 31.04 0 0 1 0.192 3.392c6.144 2.304 12.544 4.48 19.136 6.464 59.648 18.048 138.752 11.776 213.056-17.664zM503.232 337.536a30.72 30.72 0 1 1-59.264 16.128c-12.16-44.48-51.456-78.08-90.88-88.448a30.72 30.72 0 1 1 15.68-59.392c57.92 15.232 115.84 63.552 134.464 131.712z"  horiz-adv-x="1024" />
      
      <glyph glyph-name="moteshengcheng" unicode="&#59039;" d="M473.6 824.32c-96.256 0-171.52-81.792-171.52-179.2 0-64.512 32.96-122.112 83.2-153.728a344.96 344.96 0 0 1-67.008-39.104c-144.32-107.008-177.6-294.784-195.2-474.88a30.72 30.72 0 1 1 61.12-6.016c17.92 182.464 50.688 342.592 170.688 431.488 97.152 72.064 204.992 65.024 290.56 11.008 66.944-42.304 111.168-101.056 161.92-198.848 17.024-32.768 30.528-67.328 32.128-103.616 1.6-35.2-8-74.688-41.792-118.144a30.72 30.72 0 0 1 48.448-37.76c42.432 54.528 56.96 108.16 54.72 158.656-2.176 49.408-20.416 93.312-38.976 129.152-52.736 101.76-103.232 171.712-183.68 222.464a335.808 335.808 0 0 1-94.976 41.472 182.784 182.784 0 0 1 61.888 137.856c0 97.408-75.264 179.2-171.52 179.2z m-110.08-179.2c0 66.56 50.816 117.76 110.08 117.76 59.264 0 110.08-51.2 110.08-117.76S532.864 527.36 473.6 527.36c-59.264 0-110.08 51.2-110.08 117.76zM680.576 253.44a30.72 30.72 0 0 1-46.016-10.112c-5.76-11.2-9.92-29.888-12.672-48.896-3.008-20.48-4.928-45.888-4.48-72.96 1.024-52.992 11.456-118.784 48.128-165.952a30.72 30.72 0 0 1 48.384-0.128c33.728 42.944 49.536 77.696 54.464 108.16 4.672 28.8-1.152 50.816-4.928 65.216l-0.704 2.752c-3.904 15.04-13.76 36.928-27.072 58.368-13.44 21.76-32.064 45.824-55.04 63.616z m-1.664-130.88a411.712 411.712 0 0 0 1.216 40.256l3.328-5.248c11.328-18.304 17.92-34.368 19.84-41.472l0.384-1.792c3.776-14.208 6.592-25.216 4.032-40.96a123.712 123.712 0 0 0-14.784-39.616c-9.216 26.688-13.44 57.856-14.08 88.832zM357.312 178.24a30.72 30.72 0 0 1-51.712 33.28c-20.288-31.68-31.744-80.192-38.4-123.072a800.64 800.64 0 0 1-9.6-114.048 30.72 30.72 0 1 1 61.44 0c0 22.912 2.368 63.616 8.832 104.576 6.592 42.24 16.704 79.424 29.44 99.264zM156.8 639.36a9.152 9.152 0 0 0 17.344 0l20.864-63.232c0.896-2.56 2.752-4.544 5.184-5.568l59.2-24.512a9.152 9.152 0 0 0 0-16.896l-59.2-24.512a9.152 9.152 0 0 1-5.12-5.568l-20.928-63.168a9.152 9.152 0 0 0-17.28 0l-20.928 63.168a9.152 9.152 0 0 1-5.184 5.568l-59.2 24.512a9.152 9.152 0 0 0 0 16.896l59.2 24.512a9.152 9.152 0 0 1 5.12 5.568l20.928 63.168zM841.408 762.112a11.2 11.2 0 0 1-21.12 0l-25.536-75.776a11.136 11.136 0 0 0-6.4-6.784l-71.68-29.184a11.2 11.2 0 0 1 0-20.736l71.68-29.184c3.072-1.28 5.376-3.712 6.4-6.784l25.472-75.776a11.2 11.2 0 0 1 21.184 0l25.536 75.776a11.2 11.2 0 0 0 6.4 6.784l71.68 29.184a11.2 11.2 0 0 1 0 20.736l-71.68 29.184a11.2 11.2 0 0 0-6.4 6.784l-25.536 75.776z"  horiz-adv-x="1024" />
      
      <glyph glyph-name="zhongzi" unicode="&#59036;" d="M185.344 721.92c-39.808 0-69.44-14.208-86.4-42.688-14.72-24.768-16.32-55.424-16.32-79.872v-97.728c0-14.528 1.024-33.088 4.928-51.52 3.776-17.92 10.88-38.784 24.96-55.04 10.112-11.584 23.36-17.536 33.92-20.992 10.88-3.52 22.464-5.504 32.128-7.04l7.36-1.152c7.04-1.088 13.056-1.984 18.56-3.2 6.4-1.408 8.832-2.56 9.344-2.816h0.064c3.648-2.688 6.272-5.952 7.808-16.832 1.472-10.176 1.408-22.144 1.28-39.552l-0.064-17.664v-95.36c0-12.544-1.024-30.72-3.84-47.36-1.408-8.32-3.2-15.488-5.184-20.992a30.912 30.912 0 0 0-3.52-7.488c-0.064-0.064-0.064 0 0 0a19.52 19.52 0 0 0-8.128-5.504 52.16 52.16 0 0 0-15.616-1.6c-23.808 0-33.024 3.2-36.48 5.632h-0.064c-0.768 0.576-4.736 3.2-4.736 19.84a30.72 30.72 0 1 1-61.44 0c0-27.52 7.36-53.44 30.72-69.952 20.352-14.464 47.104-16.96 72-16.96 10.88 0 22.72 0.768 34.56 4.608 12.48 4.032 23.104 10.88 32.768 20.608 8.832 8.96 14.208 20.288 17.728 29.888 3.648 10.112 6.144 21.12 7.936 31.552 3.584 20.928 4.736 42.752 4.736 57.728v95.36 14.08a372.032 372.032 0 0 1-1.792 51.712c-3.008 21.312-11.072 42.176-32.192 57.728a86.144 86.144 0 0 1-32.64 13.376 385.664 385.664 0 0 1-29.568 4.992 154.88 154.88 0 0 0-22.72 4.8 23.936 23.936 0 0 0-6.592 2.944c-4.224 4.928-8.32 14.08-11.2 27.328a194.432 194.432 0 0 0-3.584 38.848V599.36c0 24.32 2.432 39.552 7.744 48.512 3.136 5.248 9.472 12.608 33.536 12.608 20.352 0 26.048-4.736 27.52-6.08 2.24-2.176 4.416-6.144 7.36-18.048a30.72 30.72 0 1 1 59.648 14.784c-3.072 12.352-8.32 32.128-24.448 47.552-17.024 16.32-40.64 23.232-70.08 23.232zM345.92 721.92a30.72 30.72 0 0 1-30.72-30.72v-609.728c0-16.96 13.76-30.72 30.72-30.72h120.128a30.72 30.72 0 1 1 0 61.44H376.64V360.832h82.56a30.72 30.72 0 1 1 0 61.44h-82.56V660.48H463.36a30.72 30.72 0 0 1 0 61.44H345.92zM527.488 691.2a30.72 30.72 0 0 0 30.72 30.72h117.568a30.72 30.72 0 0 0 0-61.44H588.928v-238.208h82.624a30.72 30.72 0 1 0 0-61.44h-82.56v-248.64H678.4a30.72 30.72 0 1 0 0-61.44H558.208a30.72 30.72 0 0 0-30.72 30.72V691.2zM770.56 721.92a30.72 30.72 0 0 1-30.72-30.72v-609.728c0-16.96 13.76-30.72 30.72-30.72h78.72c18.944 0 32.96 12.672 41.664 24.192 9.6 12.672 18.048 30.592 25.216 54.272 14.336 47.552 25.28 124.608 25.28 246.912 0 121.6-7.872 203.52-21.376 255.936-6.72 26.048-15.552 47.36-27.456 62.72-12.544 16.256-29.888 27.136-50.944 27.136H770.56z m30.72-609.728V660.48h39.68a16.768 16.768 0 0 0 3.072-3.328c4.608-5.888 10.752-18.048 16.512-40.512 11.52-44.672 19.392-120.32 19.392-240.512 0-119.552-10.752-189.824-22.592-229.12-5.888-19.584-11.648-29.952-15.232-34.816h-40.832z m39.104 548.544l0.384-0.128c-0.256 0-0.384 0.128-0.384 0.128z m-0.704-551.296l0.384 0.32-0.384-0.32z"  horiz-adv-x="1024" />
      
      <glyph glyph-name="bianjimengban" unicode="&#59035;" d="M256 384a256 256 0 1 1 512 0 256 256 0 0 1-512 0z m61.76 9.472a194.496 194.496 0 0 0 184.768 184.768L317.76 393.472z m249.472 177.024c24.704-7.296 47.36-19.392 66.944-35.2L360.64 261.824a193.92 193.92 0 0 0-35.2 66.944l241.792 241.728z m102.208-72.32c13.248-18.24 23.424-38.912 29.696-61.184l-240.192-240.192a193.664 193.664 0 0 0-61.12 29.76l271.616 271.616z m-144.96-308.288l181.632 181.632a194.56 194.56 0 0 0-181.632-181.632zM71.68 742.4c0 45.248 36.672 81.92 81.92 81.92h716.8c45.248 0 81.92-36.672 81.92-81.92v-716.8a81.92 81.92 0 0 0-81.92-81.92H153.6a81.92 81.92 0 0 0-81.92 81.92V742.4z m81.92 20.48a20.48 20.48 0 0 1-20.48-20.48v-716.8c0-11.328 9.152-20.48 20.48-20.48h716.8a20.48 20.48 0 0 1 20.48 20.48V742.4a20.48 20.48 0 0 1-20.48 20.48H153.6z"  horiz-adv-x="1024" />
      
      <glyph glyph-name="meifu-qiangli" unicode="&#59033;" d="M376.384 811.392c2.56 7.04 12.608 7.04 15.232 0l25.664-69.312c0.832-2.24 2.56-3.968 4.8-4.8l69.312-25.664c7.04-2.56 7.04-12.608 0-15.232l-69.312-25.664a8.128 8.128 0 0 1-4.8-4.8l-25.6-69.312a8.128 8.128 0 0 0-15.296 0l-25.6 69.312a8.128 8.128 0 0 1-4.864 4.8l-69.312 25.6a8.128 8.128 0 0 0 0 15.296l69.312 25.6a8.128 8.128 0 0 1 4.8 4.864l25.664 69.312zM758.848 768.896a9.728 9.728 0 0 0 18.304 0l30.784-83.2a9.792 9.792 0 0 1 5.76-5.76l83.2-30.784a9.728 9.728 0 0 0 0-18.304l-83.2-30.72a9.792 9.792 0 0 1-5.76-5.76l-30.784-83.2a9.728 9.728 0 0 0-18.304 0l-30.72 83.2a9.728 9.728 0 0 1-5.76 5.76l-83.2 30.72a9.728 9.728 0 0 0 0 18.304l83.2 30.784a9.728 9.728 0 0 1 5.76 5.76l30.72 83.2zM868.672 360.96a9.088 9.088 0 0 1-17.024 0l-24.64-66.496a9.088 9.088 0 0 0-5.312-5.376l-66.56-24.576a9.088 9.088 0 0 1 0-17.024l66.56-24.64c2.432-0.896 4.48-2.88 5.312-5.312l24.64-66.56c2.944-7.872 14.08-7.872 17.024 0l24.64 66.56a9.088 9.088 0 0 0 5.312 5.312l66.56 24.64a9.088 9.088 0 0 1 0 17.024l-66.56 24.576a9.088 9.088 0 0 0-5.312 5.376l-24.64 66.56zM634.048 152.832a6.4 6.4 0 0 0 11.904 0l17.28-46.528a6.4 6.4 0 0 1 3.712-3.776l46.592-17.216a6.4 6.4 0 0 0 0-11.904l-46.592-17.28a6.4 6.4 0 0 1-3.776-3.712l-17.216-46.528a6.4 6.4 0 0 0-11.904 0l-17.28 46.528a6.4 6.4 0 0 1-3.712 3.776l-46.528 17.216a6.4 6.4 0 0 0 0 11.904l46.528 17.28a6.336 6.336 0 0 1 3.776 3.712l17.216 46.528zM211.648 570.368a7.232 7.232 0 0 1-13.632 0l-19.712-53.12a7.296 7.296 0 0 0-4.288-4.352l-53.184-19.648a7.232 7.232 0 0 1 0-13.632l53.184-19.712a7.232 7.232 0 0 0 4.288-4.288l19.712-53.184a7.232 7.232 0 0 1 13.632 0l19.648 53.184a7.232 7.232 0 0 0 4.288 4.288l53.184 19.712a7.232 7.232 0 0 1 0 13.632l-53.12 19.648a7.296 7.296 0 0 0-4.352 4.288l-19.648 53.184zM562.048 255.616a39.808 39.808 0 0 0-5.76-7.168l-344-344.064a39.808 39.808 0 0 0-56.32 0L48.896 11.584a39.808 39.808 0 0 0 0 56.32l344 344a39.936 39.936 0 0 0 7.232 5.76 39.936 39.936 0 0 0 5.696 7.168l91.776 91.776a39.808 39.808 0 0 0 56.32 0l107.136-107.2a39.808 39.808 0 0 0 0-56.32L569.216 261.312a39.936 39.936 0 0 0-7.168-5.76zM420.992 349.568L111.168 39.68l72.96-72.96 309.824 309.76-72.96 72.96z m47.104 47.104l72.96-72.96 57.6 57.536-72.96 72.96-57.6-57.6z"  horiz-adv-x="1024" />
      
      <glyph glyph-name="meifu-putong" unicode="&#59034;" d="M316.352 768.896a9.728 9.728 0 0 1-18.304 0l-30.72-83.2a9.728 9.728 0 0 0-5.76-5.76l-83.2-30.784a9.728 9.728 0 0 1 0-18.304l83.2-30.784a9.728 9.728 0 0 0 5.76-5.76l30.72-83.2c3.2-8.512 15.168-8.512 18.304 0l30.784 83.2a9.728 9.728 0 0 0 5.76 5.76l83.2 30.784a9.728 9.728 0 0 1 0 18.304l-83.2 30.72a9.728 9.728 0 0 0-5.76 5.76l-30.784 83.2zM853.312 360.96a9.088 9.088 0 0 1-17.024 0l-24.64-66.496a9.088 9.088 0 0 0-5.312-5.376l-66.56-24.576a9.088 9.088 0 0 1 0-17.024l66.56-24.64c2.432-0.896 4.48-2.88 5.312-5.312l24.64-66.56c2.944-7.872 14.08-7.872 17.024 0l24.64 66.56a9.088 9.088 0 0 0 5.312 5.312l66.56 24.64a9.088 9.088 0 0 1 0 17.024l-66.56 24.576a9.088 9.088 0 0 0-5.312 5.376l-24.64 66.56zM704.256 397.44a40.064 40.064 0 0 1 6.08 4.992l108.8 108.8a39.808 39.808 0 0 1 0 56.32l-107.2 107.2a39.808 39.808 0 0 1-56.32 0l-108.8-108.8a40 40 0 0 1-4.992-6.08 40 40 0 0 1-6.08-4.992L48.832 67.84a39.808 39.808 0 0 1 0-56.256l107.2-107.2a39.808 39.808 0 0 1 56.32 0l486.912 487.04a39.808 39.808 0 0 1 4.992 6.016zM609.216 537.792l74.56 74.56 72.96-72.96-74.56-74.624-72.96 72.96z m27.712-118.272L184.128-33.28l-72.96 73.024L563.84 492.544l72.96-73.024z"  horiz-adv-x="1024" />
      
      <glyph glyph-name="meizhuang" unicode="&#59032;" d="M768.768 864.64a11.136 11.136 0 0 0 21.12 0l25.472-75.712a11.136 11.136 0 0 1 6.4-6.72l71.616-29.184a11.136 11.136 0 0 0 0-20.672l-71.68-29.12a11.136 11.136 0 0 1-6.336-6.784L789.952 620.8a11.136 11.136 0 0 0-21.12 0l-25.472 75.648a11.136 11.136 0 0 1-6.4 6.784l-71.616 29.12a11.136 11.136 0 0 0 0 20.672l71.68 29.184a11.136 11.136 0 0 1 6.336 6.72L768.768 864.64zM184.768 735.616a9.088 9.088 0 0 0 17.28 0l20.8-62.912c0.832-2.56 2.688-4.48 5.12-5.568l58.88-24.384a9.088 9.088 0 0 0 0-16.832l-58.88-24.384a9.088 9.088 0 0 1-5.12-5.568l-20.8-62.912a9.088 9.088 0 0 0-17.28 0l-20.8 62.912a9.088 9.088 0 0 1-5.12 5.568l-58.88 24.384a9.088 9.088 0 0 0 0 16.832l58.88 24.384a9.088 9.088 0 0 1 5.12 5.568l20.8 62.912zM579.328 845.312a30.72 30.72 0 0 0 14.592-26.112v-302.208c42.88-2.688 76.8-38.272 76.8-81.792V0a81.92 81.92 0 0 0-81.92-81.92H384A81.92 81.92 0 0 0 302.08 0V435.2c0 43.52 33.92 79.104 76.8 81.792V742.4a30.72 30.72 0 0 0 16.96 27.52l153.6 76.8a30.72 30.72 0 0 0 29.888-1.408zM409.6 455.68H384a20.48 20.48 0 0 1-20.48-20.48V0c0-11.328 9.152-20.48 20.48-20.48h204.8a20.48 20.48 0 0 1 20.48 20.48V435.2a20.48 20.48 0 0 1-20.48 20.48H409.6z m122.88 313.792l-92.16-46.08V517.12h92.16V769.472z"  horiz-adv-x="1024" />
      
      <glyph glyph-name="tiaose" unicode="&#59031;" d="M448 812.8a128 128 0 0 0 123.968-96H896a34.112 34.112 0 1 0 0-68.224H570.816a128 128 0 0 0-245.632 0H128A34.112 34.112 0 1 0 128 716.8h196.032A128 128 0 0 0 448 812.8z m0-64a64 64 0 1 1 0-128 64 64 0 0 1 0 128zM896 418.112a34.112 34.112 0 1 0 0-68.224h-91.008a128.064 128.064 0 0 0-246.784 0H128a34.112 34.112 0 1 0 0 68.224h430.208a128 128 0 0 0 246.784 0H896z m-160.256 0a64 64 0 1 1-108.16-68.16 64 64 0 0 1 108.16 68.16zM930.112 85.312a34.112 34.112 0 0 1-34.112 34.176H443.712a128 128 0 0 1-247.424 0H128A34.112 34.112 0 0 1 128 51.2h68.928a128 128 0 0 1 246.144 0H896a34.112 34.112 0 0 1 34.112 34.112zM320 150.4a64 64 0 1 0 0-127.936 64 64 0 0 0 0 128z"  horiz-adv-x="1024" />
      
      <glyph glyph-name="lvjing" unicode="&#59030;" d="M515.2 36.032a259.2 259.2 0 1 1 223.936 431.36 259.2 259.2 0 1 1-487.616-8.064 259.328 259.328 0 0 1 71.68-508.416 258.56 258.56 0 0 1 192 85.12zM493.888 742.4a190.912 190.912 0 0 0 37.76-378.112 258.88 258.88 0 0 1-210.176 105.024A190.912 190.912 0 0 0 493.888 742.4z m42.624-446.656a257.728 257.728 0 0 1 118.144 52.416c19.2 15.168 36.096 32.96 50.304 52.928h2.24A190.912 190.912 0 1 0 536.512 295.68z m-61.376-201.216a190.912 190.912 0 1 0 0 231.232A258.24 258.24 0 0 1 448 210.112c0-41.536 9.792-80.768 27.136-115.584z"  horiz-adv-x="1024" />
      
      <glyph glyph-name="fuzhuangleixing" unicode="&#59027;" d="M412.288 616.128C481.92 686.208 582.08 734.336 709.76 707.712a478.528 478.528 0 0 0 68.352-20.352c121.6-46.592 175.36-130.624 192.96-217.152 17.152-84.48-0.256-169.472-16.128-222.272l-1.984-6.848-5.056-4.992a77.376 77.376 0 0 0-40.96-20.032c-13.952-2.688-28.8-2.752-42.624-1.728a307.456 307.456 0 0 0-48.512 7.936c-22.656-43.072-73.792-106.752-163.2-151.488-71.936-35.904-129.28-27.904-169.216-7.936a167.68 167.68 0 0 0-57.408 47.552l-0.896 1.28-0.32 0.384-0.128 0.192v0.064S424.512 112.384 448 128l-23.424-15.616-0.384 0.64-0.128 0.192-0.64 0.896a545.088 545.088 0 0 1-11.072 16.64c-7.68 11.008-18.496 25.92-31.168 41.664a462.72 462.72 0 0 1-41.6 45.824 226.24 226.24 0 0 1-20.8 17.6c-52.992-70.784-107.904-99.2-160-97.024-55.424 2.304-96.768 38.72-117.888 69.12l-5.056 7.232V224c0 24.128 16.704 47.68 45.312 64a458.688 458.688 0 0 0 101.44 72.768 559.36 559.36 0 0 0 113.28 46.4c14.912 64.448 53.952 145.984 116.48 208.96z m-54.784-197.248a634.752 634.752 0 0 0 131.84 4.48c10.24 40.832 31.552 92.16 60.096 139.84 20.16 33.728 45.12 67.584 74.112 95.104-70.08-4.48-127.04-37.312-171.264-81.92a404.736 404.736 0 0 1-94.784-157.504z m349.824 231.68c-40.256-20.736-78.72-64.768-109.568-116.288a502.208 502.208 0 0 1-51.968-117.76c93.568-16 167.04-52.672 217.536-89.408 12.352 37.824 25.536 85.568 30.336 134.784 6.4 65.536-2.432 128.704-42.112 175.296a430.592 430.592 0 0 1-44.224 13.44z m132.672-62.4c12.672-43.392 13.888-89.216 9.728-131.776-6.4-65.344-25.792-127.168-40.32-168.768l6.656-7.104c14.272-4.224 33.856-8.64 52.48-10.048 10.88-0.832 20.48-0.512 27.904 0.896 3.136 0.64 5.504 1.28 7.296 2.048 13.696 48.96 25.728 118.784 12.16 185.6-9.472 46.4-31.36 92.16-75.904 129.152z m-72.96-337.792a251.072 251.072 0 0 1-9.216 8.768c-44.672 40.704-129.92 91.904-249.088 105.792a584.448 584.448 0 0 1-183.232-8.512c-22.016-4.48-63.04-17.728-106.816-40.32L224 316.16c41.472 0 73.216-6.016 98.176-17.152 20.096-8.896 39.296-23.936 56.064-39.808 17.088-16.128 33.152-34.432 46.848-51.456a799.808 799.808 0 0 0 45.76-63.168l0.64-0.96v-0.128a95.36 95.36 0 0 1 8.384-9.6c6.4-6.4 16-14.336 28.736-20.672 24.064-12.032 62.72-20.032 118.784 8 81.088 40.512 123.456 97.536 139.584 129.152z m-295.68-106.56c-0.064 0 0 0 0 0z m-371.648 81.152c15.616-15.936 37.248-28.864 61.312-29.888 25.088-1.024 60.928 10.688 103.04 62.08A272.832 272.832 0 0 1 224 259.84c-55.936 0-89.728-8.576-109.056-17.728a256.768 256.768 0 0 1-15.232-17.152z"  horiz-adv-x="1024" />
      
      <glyph glyph-name="fuzhuangleixing-2" unicode="&#59028;" d="M267.008 777.984A64 64 0 0 0 300.16 787.2h99.328c24.832 0 44.352-14.08 55.872-29.44 13.44-17.856 34.56-34.56 59.904-34.56s46.528 16.704 59.904 34.56c11.52 15.36 31.04 29.44 55.872 29.44h99.328a64 64 0 0 0 32.96-9.088l129.024-77.44a64 64 0 0 0 26.496-78.656l-42.688-106.688a64 64 0 0 0-79.616-36.928l-25.28 8.384V211.2c0-36.48-29.12-61.44-59.2-65.92-28.544-4.224-50.816-15.232-66.88-31.04-16-15.68-27.648-37.952-32-67.776-4.48-30.08-29.44-59.264-65.92-59.264h-64c-36.288 0-61.056 28.8-66.624 57.6-8.192 42.176-34.688 90.24-98.496 100.416-29.696 4.672-58.88 29.44-58.88 65.984V486.784l-24.704-8.192a64 64 0 0 0-80.128 38.144l-40.512 107.52a64 64 0 0 0 26.816 77.44l126.336 76.288zM399.36 723.2H300.16L173.696 646.848l40.512-107.52 24.704 8.192a64 64 0 0 0 84.224-60.736V211.2l0.512-0.64a8 8 0 0 1 4.416-2.176c100.48-16 140.16-94.528 151.232-151.296a9.792 9.792 0 0 1 2.688-5.12 3.84 3.84 0 0 1 1.024-0.704l0.128-0.064h64l0.64 0.448a7.296 7.296 0 0 1 1.92 4.16c6.208 41.856 23.296 77.44 50.496 104.128 27.136 26.624 62.464 42.688 102.336 48.64a7.36 7.36 0 0 1 4.096 1.984 2.624 2.624 0 0 1 0.512 0.64V486.784a64 64 0 0 0 84.224 60.736l25.28-8.448 42.688 106.688L730.24 723.2H631.04a3.648 3.648 0 0 1-1.088-0.448 13.12 13.12 0 0 1-3.712-3.456c-18.944-25.216-56.768-60.096-111.04-60.096-54.272 0-92.096 34.88-111.04 60.096a13.12 13.12 0 0 1-3.712 3.456 3.648 3.648 0 0 1-1.088 0.448z"  horiz-adv-x="1024" />
      
      <glyph glyph-name="fuzhuangleixing-1" unicode="&#59029;" d="M614.4 672A89.6 89.6 0 0 0 704 761.6h128a89.6 89.6 0 0 0 89.6-89.6v-363.2a89.6 89.6 0 0 0-17.152-52.672l-179.2-246.4a139.968 139.968 0 1 0-225.152 166.4L614.4 328.512V672z m89.6 38.4a38.4 38.4 0 0 1-38.4-38.4v-6.4h204.8v6.4a38.4 38.4 0 0 1-38.4 38.4h-128z m166.4-96h-204.8v-302.912l-124.544-166.08a88.832 88.832 0 1 1 142.848-105.536l112.256 154.368a183.424 183.424 0 0 0-39.872 47.04 141.184 141.184 0 0 0-12.608 118.848c24.704 73.92 84.48 102.656 126.72 110.848V614.4z m0-195.84c-27.584-7.808-62.72-28.544-78.08-74.624-10.112-30.208-4.032-55.936 8.192-76.8 7.296-12.608 16.768-23.168 25.856-31.36l36.672 50.432a38.4 38.4 0 0 1 7.36 22.592V418.56zM230.4 704A89.6 89.6 0 0 0 320 793.6h128A89.6 89.6 0 0 0 537.6 704v-363.2a89.6 89.6 0 0 0-17.152-52.672l-179.2-246.4a139.968 139.968 0 1 0-225.152 166.4L230.4 360.512V704zM320 742.4a38.4 38.4 0 0 1-38.4-38.4v-6.4h204.8V704a38.4 38.4 0 0 1-38.4 38.4H320z m166.4-96H281.6v-302.912l-124.544-166.08a88.832 88.832 0 1 1 142.848-105.536l112.256 154.368a183.424 183.424 0 0 0-39.872 47.04 141.184 141.184 0 0 0-12.544 118.848C384.384 466.048 444.16 494.72 486.4 502.976V646.4z m0-195.84c-27.584-7.808-62.72-28.544-78.08-74.624-10.112-30.208-4.032-55.936 8.192-76.8 7.296-12.608 16.768-23.168 25.856-31.36l36.672 50.432a38.4 38.4 0 0 1 7.36 22.592V450.56z"  horiz-adv-x="1024" />
      
      <glyph glyph-name="jingxiang-fanzhuan-xian-chuizhi" unicode="&#59025;" d="M898.688 348.288a32 32 0 0 1 0 64h-58.24a32 32 0 1 1 0-64h58.24zM700.8 348.288a32 32 0 0 1 0 64H584.576a32 32 0 0 1 0-64h116.352zM444.8 348.288a32 32 0 1 1 0 64H328.576a32 32 0 0 1 0-64H444.8zM188.8 348.288a32 32 0 0 1 0 64h-58.112a32 32 0 0 1 0-64h58.176zM795.456-45.312H201.92c-26.304 0-38.4 32.64-18.432 49.792l296.768 254.4a28.352 28.352 0 0 0 36.864 0l296.768-254.4a28.352 28.352 0 0 0-18.432-49.792z m-497.088 64h400.64l-200.32 171.712-200.32-171.712zM795.456 808H201.92c-26.304 0-38.4-32.704-18.432-49.856l296.768-254.336c10.56-9.088 26.24-9.088 36.864 0l296.768 254.336a28.352 28.352 0 0 1-18.432 49.856z m-497.088-64h400.64l-200.32-171.712-200.32 171.712z"  horiz-adv-x="1024" />
      
      <glyph glyph-name="jingxiang-fanzhuan-xian-shuiping" unicode="&#59026;" d="M545.088 768a32 32 0 1 1-64 0v-58.24a32 32 0 0 1 64 0V768zM545.088 570.24a32 32 0 1 1-64 0v-116.48a32 32 0 0 1 64 0V570.24zM545.088 314.24a32 32 0 1 1-64 0v-116.48a32 32 0 0 1 64 0V314.24zM545.088 58.24a32 32 0 0 1-64 0V0a32 32 0 0 1 64 0v58.24zM85.312 664.768c0 26.24 32.768 38.4 49.856 18.432l254.336-296.768a28.352 28.352 0 0 0 0-36.864l-254.336-296.768a28.352 28.352 0 0 0-49.856 18.432V664.768z m64-497.088l171.712 200.32-171.712 200.32v-400.64zM938.688 664.768v-593.536c0-26.24-32.704-38.4-49.856-18.432L634.496 349.568a28.352 28.352 0 0 0 0 36.864l254.336 296.768a28.352 28.352 0 0 0 49.856-18.432z m-64-497.088V568.32l-171.712-200.32 171.712-200.32z"  horiz-adv-x="1024" />
      
      <glyph glyph-name="bianjibiaotou" unicode="&#59024;" d="M739.456 790.656a32 32 0 0 1-45.312 0l-307.2-307.2a32 32 0 0 1-9.088-18.688l-25.6-204.8a32 32 0 0 1 35.712-35.712l204.8 25.6a32 32 0 0 1 18.688 9.088l307.2 307.2a32 32 0 0 1 0 45.312l-179.2 179.2zM420.864 292.864l19.136 153.088L716.8 722.752 850.752 588.8 573.952 312l-153.088-19.2zM195.2 672a9.088 9.088 0 0 1-3.2-0.512v-638.912a9.088 9.088 0 0 1 3.2-0.576h633.6a9.408 9.408 0 0 1 3.008 0.512H832v348.8a32 32 0 0 0 64 0v-352c0-8.96-2.112-17.6-6.016-25.472a61.632 61.632 0 0 0-15.808-19.84c-6.4-5.376-13.76-9.344-21.44-12.032-7.68-2.624-15.872-3.968-23.936-3.968h-633.6a71.04 71.04 0 0 0-45.376 16 59.072 59.072 0 0 0-21.824 45.312V674.688c0 18.304 8.768 34.432 21.824 45.312a71.04 71.04 0 0 0 45.376 16h281.6a32 32 0 0 0 0-64h-281.6z"  horiz-adv-x="1024" />
      
      <glyph glyph-name="suo-dakai" unicode="&#59023;" d="M544 320a32 32 0 0 1-64 0v-128a32 32 0 1 1 64 0V320zM241.664 646.72a96 96 0 0 0 67.84 117.568L556.8 830.528a96 96 0 0 0 117.568-67.84 32 32 0 1 0-61.824-16.64 32 32 0 0 1-39.168 22.656L326.08 702.464a32 32 0 0 1-22.592-39.168l32-119.296H768A96 96 0 0 0 864 448v-384a96 96 0 0 0-96-96H256A96 96 0 0 0 160 64V448A96 96 0 0 0 256 544h13.184l-27.52 102.72zM256 480a32 32 0 0 1-32-32v-384a32 32 0 0 1 32-32h512a32 32 0 0 1 32 32V448a32 32 0 0 1-32 32H256z"  horiz-adv-x="1024" />
      
      <glyph glyph-name="tuxiangfengge" unicode="&#59022;" d="M394.688 674.176c0 46.592 42.24 81.792 88.064 73.472l384-69.76c35.52-6.528 61.312-37.44 61.312-73.536v-440.832c0-36.096-25.792-67.008-61.312-73.472l-384-69.76a74.688 74.688 0 0 0-88.064 73.408v580.48z m76.608 10.496a10.688 10.688 0 0 1-12.608-10.496v-580.48c0-6.656 6.08-11.648 12.608-10.496l384 69.824a10.688 10.688 0 0 1 8.768 10.496V604.352c0 5.12-3.648 9.6-8.768 10.496l-384 69.824zM341.376 702.528l-31.936 4.672A74.688 74.688 0 0 1 224 633.28v-498.688c0-45.504 40.448-80.448 85.44-73.92l31.936 4.672v64.64l-41.152-5.952a10.688 10.688 0 0 0-12.16 10.56V633.28c0 6.528 5.76 11.52 12.16 10.56l41.152-5.952v64.64zM96 613.952c0 33.024 29.632 57.92 61.888 52.672v-565.312a53.312 53.312 0 0 0-61.888 52.608V613.952z"  horiz-adv-x="1024" />
      
      <glyph glyph-name="duiqi-liangduan" unicode="&#59018;" d="M96 672A32 32 0 0 0 128 704h768a32 32 0 0 0 0-64H128a32 32 0 0 0-32 32zM96 416A32 32 0 0 0 128 448h768a32 32 0 0 0 0-64H128a32 32 0 0 0-32 32zM128 192a32 32 0 0 1 0-64h768a32 32 0 0 1 0 64H128z"  horiz-adv-x="1024" />
      
      <glyph glyph-name="duiqi-juyou" unicode="&#59019;" d="M96 672A32 32 0 0 0 128 704h768a32 32 0 0 0 0-64H128a32 32 0 0 0-32 32zM480 416A32 32 0 0 0 512 448h384a32 32 0 0 0 0-64H512a32 32 0 0 0-32 32zM256 192a32 32 0 0 1 0-64h640a32 32 0 0 1 0 64H256z"  horiz-adv-x="1024" />
      
      <glyph glyph-name="duiqi-juzuo" unicode="&#59020;" d="M96 672A32 32 0 0 0 128 704h768a32 32 0 0 0 0-64H128a32 32 0 0 0-32 32zM96 416A32 32 0 0 0 128 448h384a32 32 0 0 0 0-64H128a32 32 0 0 0-32 32zM128 192a32 32 0 0 1 0-64h640a32 32 0 0 1 0 64H128z"  horiz-adv-x="1024" />
      
      <glyph glyph-name="duiqi-juzhong" unicode="&#59021;" d="M96 672A32 32 0 0 0 128 704h768a32 32 0 0 0 0-64H128a32 32 0 0 0-32 32zM288 416A32 32 0 0 0 320 448h384a32 32 0 0 0 0-64H320a32 32 0 0 0-32 32zM192 192a32 32 0 0 1 0-64h640a32 32 0 0 1 0 64H192z"  horiz-adv-x="1024" />
      
      <glyph glyph-name="suo-kai" unicode="&#59016;" d="M544 320a32 32 0 0 1-64 0v-128a32 32 0 0 1 64 0V320zM288 736A96 96 0 0 0 384 832h256a96 96 0 0 0 96-96v-64a32 32 0 0 0-64 0v64A32 32 0 0 1 640 768H384a32 32 0 0 1-32-32v-192H768A96 96 0 0 0 864 448v-384a96 96 0 0 0-96-96H256A96 96 0 0 0 160 64V448A96 96 0 0 0 256 544h32v192z m-32-256a32 32 0 0 1-32-32v-384a32 32 0 0 1 32-32h512a32 32 0 0 1 32 32V448a32 32 0 0 1-32 32H256z"  horiz-adv-x="1024" />
      
      <glyph glyph-name="suo-guan" unicode="&#59017;" d="M544 320a32 32 0 0 1-64 0v-128a32 32 0 0 1 64 0V320zM384 832a96 96 0 0 1-96-96v-192H256A96 96 0 0 1 160 448v-384A96 96 0 0 1 256-32h512a96 96 0 0 1 96 96V448A96 96 0 0 1 768 544h-32v192A96 96 0 0 1 640 832H384z m288-288h-320v192A32 32 0 0 0 384 768h256a32 32 0 0 0 32-32v-192zM256 480h512a32 32 0 0 0 32-32v-384a32 32 0 0 0-32-32H256a32 32 0 0 0-32 32V448a32 32 0 0 0 32 32z"  horiz-adv-x="1024" />
      
      <glyph glyph-name="xingzhuang-wubianxing" unicode="&#59012;" d="M480.64 827.434667a53.333333 53.333333 0 0 0 62.72 0l380.672-276.565334c18.730667-13.610667 26.538667-37.674667 19.413333-59.648l-145.450666-447.573333a53.333333 53.333333 0 0 0-50.688-36.821333H276.693333a53.333333 53.333333 0 0 0-50.688 36.864L80.554667 491.221333a53.333333 53.333333 0 0 0 19.370666 59.648l380.714667 276.565334zM512 771.114667l-368.170667-267.52L284.458667 70.826667h455.082666l140.629334 432.810666L512 771.157333z"  horiz-adv-x="1024" />
      
      <glyph glyph-name="xingzhuang-juxing" unicode="&#59013;" d="M810.666667 704a21.333333 21.333333 0 0 0 21.333333-21.333333v-597.333334a21.333333 21.333333 0 0 0-21.333333-21.333333H213.333333a21.333333 21.333333 0 0 0-21.333333 21.333333V682.666667a21.333333 21.333333 0 0 0 21.333333 21.333333h597.333334zM213.333333 768a85.333333 85.333333 0 0 1-85.333333-85.333333v-597.333334a85.333333 85.333333 0 0 1 85.333333-85.333333h597.333334a85.333333 85.333333 0 0 1 85.333333 85.333333V682.666667a85.333333 85.333333 0 0 1-85.333333 85.333333H213.333333z"  horiz-adv-x="1024" />
      
      <glyph glyph-name="xingzhuang-sanjiaoxing" unicode="&#59014;" d="M912.213333 119.125333c12.8-21.376-0.768-55.125333-36.138666-55.125333H147.925333c-35.370667 0-48.896 33.749333-36.096 55.125333l364.074667 608c15.573333 26.026667 56.618667 26.026667 72.192 0l364.074667-608z m-309.205333 640.853334c-40.448 67.584-141.568 67.584-182.016 0l-364.074667-608C16.469333 84.48 66.986667 0 147.925333 0h728.149334c80.896 0 131.456 84.48 91.008 152.021333l-364.074667 608z"  horiz-adv-x="1024" />
      
      <glyph glyph-name="xingzhuang-yuanxing" unicode="&#59015;" d="M149.333333 384a362.666667 362.666667 0 1 0 725.333334 0 362.666667 362.666667 0 0 0-725.333334 0zM512 810.666667C276.352 810.666667 85.333333 619.648 85.333333 384s191.018667-426.666667 426.666667-426.666667 426.666667 191.018667 426.666667 426.666667S747.648 810.666667 512 810.666667z"  horiz-adv-x="1024" />
      
      <glyph glyph-name="yidong-zhiyudingceng" unicode="&#59005;" d="M860.608 202.24a8.96 8.96 0 0 0-0.32-15.936l-332.16-166.08a70.4 70.4 0 0 0-62.976 0l-332.16 166.08a8.96 8.96 0 0 0-0.32 15.872l165.312 90.432a32 32 0 0 1-30.72 56.192L101.952 258.368a72.96 72.96 0 0 1 2.368-129.28l332.16-166.08a134.4 134.4 0 0 1 120.32 0l332.16 166.08a72.96 72.96 0 0 1 2.368 129.28L726.016 348.8a32 32 0 0 1-30.72-56.192l165.312-90.432zM464.64 648.32L361.216 524.224a32 32 0 0 0-49.152 40.96L465.024 748.8H208.64a32 32 0 0 0 0 64h576a32 32 0 0 0 0-64H528.192l153.024-183.616a32 32 0 1 0-49.152-40.96L528.64 648.384v-455.68a32 32 0 0 0-64 0v455.68z"  horiz-adv-x="1024" />
      
      <glyph glyph-name="yidong-zhiyudiceng" unicode="&#59009;" d="M875.968 566.528a8.96 8.96 0 0 1-0.32 15.872l-332.16 166.08a70.4 70.4 0 0 1-62.976 0L148.352 582.4a8.96 8.96 0 0 1-0.32-15.872l165.312-90.432a32 32 0 0 0-30.72-56.192L117.312 510.336a72.96 72.96 0 0 0 2.368 129.28l332.16 166.08a134.4 134.4 0 0 0 120.32 0l332.16-166.08a72.96 72.96 0 0 0 2.368-129.28l-165.312-90.432a32 32 0 0 0-30.72 56.192l165.312 90.432zM480 120.32l-103.424 124.16a32 32 0 0 1-49.152-40.96l142.912-171.52H224a32 32 0 0 1 0-64h576a32 32 0 0 1 0 64H553.664l142.912 171.52a32 32 0 1 1-49.152 40.96L544 120.32V576a32 32 0 1 1-64 0v-455.68z"  horiz-adv-x="1024" />
      
      <glyph glyph-name="moban" unicode="&#59011;" d="M96 725.312c0 41.28 33.408 74.688 74.688 74.688H384c41.216 0 74.688-33.408 74.688-74.688v-682.624c0-41.28-33.472-74.688-74.688-74.688H170.688A74.688 74.688 0 0 0 96 42.688V725.312zM170.688 736a10.688 10.688 0 0 1-10.688-10.688v-682.624c0-5.888 4.8-10.688 10.688-10.688H384a10.688 10.688 0 0 1 10.688 10.688V725.312A10.688 10.688 0 0 1 384 736H170.688zM522.688 725.312c0 41.28 33.408 74.688 74.624 74.688h256c41.28 0 74.688-33.408 74.688-74.688v-298.624c0-41.28-33.408-74.688-74.688-74.688h-256a74.688 74.688 0 0 0-74.624 74.688V725.312zM597.312 736a10.688 10.688 0 0 1-10.624-10.688v-298.624c0-5.888 4.736-10.688 10.624-10.688h256a10.688 10.688 0 0 1 10.688 10.688V725.312a10.688 10.688 0 0 1-10.688 10.688h-256zM597.312 288c-41.216 0-74.624-33.408-74.624-74.688v-170.624c0-41.28 33.408-74.688 74.624-74.688h256c41.28 0 74.688 33.408 74.688 74.688v170.624c0 41.28-33.408 74.688-74.688 74.688h-256z m-10.624-74.688c0 5.888 4.736 10.688 10.624 10.688h256c5.888 0 10.688-4.8 10.688-10.688v-170.624a10.688 10.688 0 0 0-10.688-10.688h-256a10.688 10.688 0 0 0-10.624 10.688v170.624z"  horiz-adv-x="1024" />
      
      <glyph glyph-name="yidong-shangyiyiceng" unicode="&#59008;" d="M462.656 804.864a102.4 102.4 0 0 0 98.688 0l397.248-218.496a40.96 40.96 0 0 0-0.128-71.808L561.152 297.216a102.4 102.4 0 0 0-98.304 0L65.536 514.56a40.96 40.96 0 0 0-0.128 71.808L462.72 804.864z m67.84-56.064a38.4 38.4 0 0 1-36.992 0L133.056 550.528l360.512-197.184a38.4 38.4 0 0 1 36.864 0l360.512 197.184L530.496 748.8zM683.2 37.248a32 32 0 0 1-35.2 53.504L546.112 23.68a70.4 70.4 0 0 0-72.64-2.752l-342.016 188.864a8.96 8.96 0 0 0 0 15.68l119.68 66.496a32 32 0 1 1-31.104 55.936l-119.68-66.496a72.96 72.96 0 0 1 0.192-127.616l341.952-188.864a134.4 134.4 0 0 1 138.752 5.312l102.016 66.944zM850.432 293.76a32 32 0 0 0 39.936 0l128-102.4a32 32 0 1 0-39.936-49.92l-76.032 60.8v-215.04a32 32 0 0 0-64 0v215.04l-76.032-60.8a32 32 0 1 0-39.936 49.92l128 102.4z"  horiz-adv-x="1088" />
      
      <glyph glyph-name="yidong-xiayiyiceng" unicode="&#59010;" d="M683.2 730.752a32 32 0 0 0-35.2-53.504L548.544 742.592a70.4 70.4 0 0 1-75.264 1.28l-336.64-204.608a8.96 8.96 0 0 1 1.216-15.936l109.952-45.76a32 32 0 1 0-24.576-59.136l-110.016 45.824a72.96 72.96 0 0 0-9.792 129.728l336.64 204.608a134.4 134.4 0 0 0 143.616-2.496l99.52-65.344zM462.656 472.064a102.4 102.4 0 0 0 98.688 0l397.248-218.496a40.96 40.96 0 0 0-0.128-71.808l-397.312-217.408a102.4 102.4 0 0 0-98.304 0L65.536 181.76a40.96 40.96 0 0 0-0.128 71.808L462.72 472.064z m67.84-56.128a38.4 38.4 0 0 1-36.992 0l-360.448-198.208 360.512-197.184a38.4 38.4 0 0 1 36.864 0l360.512 197.184L530.496 416zM850.432 474.24a32 32 0 0 1 39.936 0l128 102.4a32 32 0 1 1-39.936 49.92l-76.032-60.8V780.8a32 32 0 0 1-64 0v-215.04l-76.032 60.8a32 32 0 1 1-39.936-49.92l128-102.4z"  horiz-adv-x="1088" />
      
      </font>
</defs>
</svg>
